<?xml version="1.0" standalone="no"?>
<!DOCTYPE svg PUBLIC "-//W3C//DTD SVG 1.1//EN" "http://www.w3.org/Graphics/SVG/1.1/DTD/svg11.dtd" >
<svg xmlns="http://www.w3.org/2000/svg">
<metadata>Generated by IcoMoon</metadata>
<defs>
<font id="icomoon" horiz-adv-x="1024">
<font-face units-per-em="1024" ascent="960" descent="-64" />
<missing-glyph horiz-adv-x="1024" />
<glyph unicode="&#x20;" horiz-adv-x="512" d="" />
<glyph unicode="&#xe600;" glyph-name="B2_NewQuery" d="M512 960c-281.6 0-512-230.4-512-512s230.4-512 512-512 512 230.4 512 512c0 281.6-230.4 512-512 512zM816 422.4c0-25.6-19.2-44.8-44.8-44.8h-147.2c-25.6 0-44.8-19.2-44.8-44.8v-147.2c0-25.6-19.2-44.8-44.8-44.8h-51.2c-25.6 0-44.8 19.2-44.8 44.8v147.2c0 25.6-19.2 44.8-44.8 44.8h-147.2c-25.6 0-44.8 19.2-44.8 44.8v51.2c0 25.6 19.2 44.8 44.8 44.8h147.2c25.6 0 44.8 19.2 44.8 44.8v147.2c0 25.6 19.2 44.8 44.8 44.8h51.2c25.6 0 44.8-19.2 44.8-44.8v-147.2c0-25.6 19.2-44.8 44.8-44.8h147.2c25.6 0 44.8-19.2 44.8-44.8v-51.2z" />
<glyph unicode="&#xe601;" glyph-name="CM1_ContextMenuMain" d="M512-64c281.6 0 512 230.4 512 512s-230.4 512-512 512-512-230.4-512-512 230.4-512 512-512zM512 902.4c249.6 0 454.4-204.8 454.4-454.4s-204.8-454.4-454.4-454.4-454.4 204.8-454.4 454.4 204.8 454.4 454.4 454.4zM771.2 611.2h-518.4l259.2-425.6 259.2 425.6z" />
<glyph unicode="&#xe602;" glyph-name="E1_BreadcrumbCaret" d="M518.4 448l-262.4-262.4v-249.6l512 512-512 512v-249.6l262.4-262.4z" />
<glyph unicode="&#xe603;" glyph-name="A1_Information" d="M512 960c-281.6 0-512-230.4-512-512s230.4-512 512-512 512 230.4 512 512-230.4 512-512 512zM579.2 800c19.2 0 35.2-6.4 48-19.2 9.6-12.8 12.8-28.8 12.8-44.8 0-41.6-35.2-83.2-83.2-83.2 0 0 0 0 0 0-38.4 0-60.8 28.8-60.8 67.2 0 35.2 28.8 80 83.2 80v0zM640 227.2c-70.4-76.8-160-124.8-192-124.8 0 0 0 0 0 0-12.8 0-22.4 3.2-32 12.8s-12.8 22.4-12.8 44.8c0 16 3.2 48 9.6 73.6l51.2 220.8c3.2 12.8 3.2 22.4 3.2 25.6-9.6-3.2-48-32-67.2-48l-6.4-6.4-22.4 54.4 3.2 3.2c73.6 67.2 160 121.6 198.4 121.6 12.8 0 22.4-6.4 25.6-16 6.4-9.6 6.4-22.4 6.4-35.2 0-16-3.2-48-6.4-70.4l-54.4-227.2c-3.2-9.6-3.2-19.2-3.2-25.6 0-3.2 0-3.2 0-6.4 6.4 0 44.8 28.8 70.4 51.2l6.4 6.4 22.4-48 3.2-3.2-3.2-3.2z" />
<glyph unicode="&#xe604;" glyph-name="CM10_View_as_PDF" d="M912-64h-800v809.6l179.2 214.4h620.8v-1024zM364.8 873.6v-214.4h-182.4v-640h656v854.4h-473.6zM780.8 544h-134.4v-224h48v92.8h73.6v44.8h-80v38.4h86.4v48c0 0 6.4 0 6.4 0zM524.8 544h-80v-224h80c25.6 0 48 6.4 67.2 32 25.6 38.4 32 124.8 0 163.2-19.2 12.8-38.4 28.8-67.2 28.8v0 0zM492.8 499.2h25.6c25.6 0 41.6-6.4 48-38.4 6.4-16 6.4-38.4 0-54.4-6.4-22.4-19.2-32-41.6-32h-32v124.8zM345.6 544h-89.6v-224h48v76.8h41.6c32 0 54.4 16 67.2 44.8 6.4 16 6.4 38.4 0 54.4-6.4 32-35.2 48-67.2 48v0zM304 499.2h25.6c12.8 0 25.6 0 25.6-16 6.4-6.4 6.4-22.4 0-32-6.4-16-19.2-16-25.6-16h-25.6v64z" />
<glyph unicode="&#xe605;" glyph-name="C9_Last_Query" d="M892.8 51.2l-240 246.4c35.2 54.4 54.4 121.6 54.4 195.2 0 198.4-163.2 358.4-352 358.4-198.4 3.2-355.2-163.2-355.2-358.4 0-198.4 163.2-358.4 352-358.4 67.2 0 128 19.2 179.2 48l243.2-246.4 118.4 115.2zM67.2 492.8c0 160 134.4 294.4 288 294.4s288-134.4 288-294.4-131.2-291.2-291.2-291.2c-160 0-284.8 134.4-284.8 291.2v0zM921.6 905.6l41.6 54.4h-240l28.8-236.8 41.6 41.6c176-140.8 96-384-96-422.4 294.4 3.2 438.4 384 224 563.2v0z" />
<glyph unicode="&#xe606;" glyph-name="C10_Last_Query_a" d="M0 448c0-283.022 228.978-512 512-512s512 228.978 512 512-228.978 512-512 512c-283.022 0-512-228.978-512-512zM146.489 470.756l325.689 219.022v-132.267c0 0 375.467-28.444 375.467-307.2 0 0-46.933 113.778-228.978 135.111-29.867 2.844-75.378 7.111-146.489 7.111v-142.222l-325.689 220.444z" />
<glyph unicode="&#xe607;" glyph-name="C15_Delete_Batch_a" d="M622.933 275.911l-132.267 132.267 166.4 162.133 128-126.578 129.422 122.311 8.533 8.533v143.644c0 15.644-14.222 31.289-28.444 31.289h-462.222l-18.489 41.244c-2.844 8.533-25.6 61.156-39.822 61.156h-231.822c-14.222 0-31.289-15.644-39.822-31.289l-31.289-71.111h-42.667c-14.222 0-28.444-12.8-28.444-31.289v-644.267c0-15.644 14.222-31.289 28.444-31.289h568.889l-106.667 100.978zM1024 146.489l-130.844 128 130.844 128-105.244 105.244-130.844-128-130.844 128-108.089-105.244 130.844-128-130.844-128 108.089-103.822 130.844 146.489 130.844-146.489 105.244 103.822z" />
<glyph unicode="&#xe608;" glyph-name="C12_Last_Query_Result" d="M166.4 870.4v0l-166.4-163.2v-627.2h121.6v67.2h-54.4v492.8h163.2v166.4h275.2v-57.6h64v121.6h-403.2zM726.4 723.2v-780.8h-566.4v617.6l163.2 163.2h403.2zM662.4 656h-272v-163.2h-166.4v-486.4h435.2v649.6zM921.6 889.6l41.6 54.4h-236.8l28.8-230.4 41.6 38.4c172.8-137.6 96-374.4-92.8-412.8 288 6.4 432 374.4 217.6 550.4z" />
<glyph unicode="&#xe609;" glyph-name="C13_Last_Document" d="M922.464 890.464l42.432 53.488-237.776 0.032 27.376-230.56 40.336 39.36c174.208-137.936 94.512-374.736-93.84-412.688 290.688 4.56 433.76 375.024 221.472 550.368zM658.496 844.8h-469.344v-190.576h-189.152v-718.224h658.496zM132.272 844.8l-132.272-132.272h132.272z" />
<glyph unicode="&#xe60a;" glyph-name="E16_document_retention_previousrevision" d="M473.6 19.2c28.8-35.2 80-60.8 121.6-83.2h-595.2v809.6l211.2 214.4h524.8v-374.4c-22.4 0-54.4 3.2-86.4-6.4v294.4h-352v-214.4h-211.2v-640h387.2zM716.8-57.6c169.6 0 307.2 137.6 307.2 307.2s-137.6 307.2-307.2 307.2-307.2-137.6-307.2-307.2 134.4-307.2 307.2-307.2c0 0 0 0 0 0zM716.8 35.2c-118.4 0-217.6 96-217.6 214.4s96 214.4 217.6 214.4 214.4-96 214.4-214.4-99.2-214.4-214.4-214.4v0zM678.4 380.8v-144l12.8-12.8 112-96 48 54.4-112 96 12.8-28.8v128l-73.6 3.2zM377.6 627.2v-390.4l-256 195.2 256 195.2z" />
<glyph unicode="&#xe60b;" glyph-name="A2_Profile" d="M897.422 223.289c-61.156 28.444-153.6 103.822-287.289 125.156 35.556 39.822 61.156 99.556 89.6 169.244 15.644 39.822 12.8 76.8 12.8 126.578 0 36.978 5.689 95.289-2.844 129.422-29.867 106.667-106.667 136.533-194.844 136.533-89.6 0-163.556-28.444-194.844-142.222-9.956-34.133-2.844-92.444-2.844-129.422 0-49.778-2.844-85.333 12.8-126.578 28.444-73.956 54.044-132.267 86.756-169.244-133.689-25.6-227.556-99.556-287.289-125.156-128-58.311-128-122.311-128-122.311v-109.511h1024v109.511c0 1.422 0 66.844-128 128z" />
<glyph unicode="&#xe60c;" glyph-name="A3_Logout" d="M966.4 960h-470.4c-38.4 0-57.6-19.2-57.6-57.6v-86.4l131.2-112v121.6h323.2v-822.4h131.2v899.2c0 38.4-19.2 57.6-57.6 57.6v0zM441.6 3.2h131.2v211.2l-131.2-112v-99.2zM384 761.6c-9.6 6.4-16 9.6-22.4 9.6-12.8 0-19.2-9.6-19.2-28.8v-140.8c0-16 0-35.2 0-54.4h-288c-28.8 0-54.4-25.6-54.4-54.4v-64c0-28.8 25.6-54.4 54.4-54.4h291.2c0-19.2 0-38.4 0-54.4v-140.8c0-19.2 6.4-28.8 19.2-28.8 6.4 0 12.8 3.2 22.4 9.6l310.4 265.6c22.4 19.2 22.4 51.2 0 70.4l-313.6 265.6zM441.6 80v-86.4c0-38.4 19.2-57.6 57.6-57.6h470.4c38.4 0 57.6 19.2 57.6 57.6v86.4l-134.4 112v-121.6h-323.2l-128 9.6z" />
<glyph unicode="&#xe60d;" glyph-name="B1_Run" d="M512 960c-281.6 0-512-230.4-512-512s230.4-512 512-512c281.6 0 512 230.4 512 512s-230.4 512-512 512zM313.6 185.6v524.8l528-262.4-528-262.4z" />
<glyph unicode="&#xe60e;" glyph-name="B3_Expand" d="M873.6 572.8h-716.8l358.4-329.6 358.4 329.6z" />
<glyph unicode="&#xe60f;" glyph-name="B4_Collapse" d="M352 790.4v-716.8l329.6 358.4-329.6 358.4z" />
<glyph unicode="&#xe610;" glyph-name="C1_BatchDropdownMain" d="M940.8 505.6v243.2h-422.4v99.2h-316.8l-128-128v-217.6h-73.6v-457.6h1024v460.8h-83.2zM889.6 700.8v-195.2h-89.6v195.2h89.6zM675.2 700.8h73.6v-195.2h-89.6v195.2h16zM640 208h-256v128h256v-128zM534.4 700.8h73.6v-195.2h-89.6v195.2c0 0 16 0 16 0zM124.8 672h128v128h214.4v-294.4h-342.4c0 0 0 166.4 0 166.4z" />
<glyph unicode="&#xe611;" glyph-name="C2_UploadNewDoc" d="M204.8 931.556l-147.911-140.8h146.489v140.8zM465.067 85.333v227.556h169.244v174.933h155.022v443.733h-520.533v-201.956h-211.911v-765.156h578.844v119.467l-170.667 1.422zM802.133 428.089h-126.578v-166.4h-164.978v-126.578h164.978v-166.4h126.578v166.4h164.978v126.578h-164.978v166.4z" />
<glyph unicode="&#xe612;" glyph-name="C3_UploadNewBatches" d="M624 3.2h-352v508.8h172.8v169.6h288v-169.6h67.2v236.8h-425.6l-172.8-169.6v-643.2h422.4v67.2zM838.4 444.8h-147.2v-182.4h-185.6v-144h185.6v-182.4h147.2v182.4h185.6v144h-185.6v182.4zM163.2 166.4h-89.6v540.8h182.4v179.2h304v-105.6h73.6v179.2h-448l-185.6-182.4v-684.8h163.2v73.6z" />
<glyph unicode="&#xe613;" glyph-name="C4_ManageBatches" d="M992 752h-560l-35.2 70.4c-6.4 16-28.8 28.8-44.8 28.8h-195.2c-16 0-38.4-12.8-44.8-28.8l-35.2-70.4h-44.8c-16 0-32-12.8-32-32v-646.4c0-16 12.8-32 32-32h960c16 0 32 12.8 32 32v649.6c0 16-12.8 28.8-32 28.8v0zM707.2 336h-393.6v140.8h393.6v-140.8z" />
<glyph unicode="&#xe614;" glyph-name="C5_CreateDropdownMain" d="M512 960c-281.6 0-512-230.4-512-512s230.4-512 512-512 512 230.4 512 512-230.4 512-512 512zM816 422.4c0-25.6-19.2-44.8-44.8-44.8h-147.2c-25.6 0-44.8-19.2-44.8-44.8v-147.2c0-25.6-19.2-44.8-44.8-44.8h-51.2c-25.6 0-44.8 19.2-44.8 44.8v147.2c0 25.6-19.2 44.8-44.8 44.8h-144c-25.6 0-44.8 19.2-44.8 44.8v51.2c0 25.6 19.2 44.8 44.8 44.8h147.2c25.6 0 44.8 19.2 44.8 44.8v147.2c0 25.6 19.2 44.8 44.8 44.8h51.2c25.6 0 44.8-19.2 44.8-44.8v-147.2c0-25.6 19.2-44.8 44.8-44.8h147.2c25.6 0 44.8-19.2 44.8-44.8l-3.2-51.2z" />
<glyph unicode="&#xe615;" glyph-name="C7_CreateMultiAppSearch" d="M524.8 34.133h-426.667v622.933h209.067v204.8h348.444v-204.8h83.911v288.711h-516.267l-209.067-209.067v-786.489h510.578v83.911zM786.489 571.733h-177.778v-223.289h-224.711v-177.778h224.711v-220.444h177.778v223.289h223.289v177.778h-223.289v220.444zM278.756 519.111h274.489v-68.267h-274.489v68.267zM278.756 372.622h65.422v-68.267h-65.422v68.267zM278.756 223.289h65.422v-68.267h-65.422v68.267zM231.822 484.978c0-18.489-15.644-34.133-34.133-34.133s-34.133 15.644-34.133 34.133 15.644 34.133 34.133 34.133 34.133-15.644 34.133-34.133zM231.822 335.644c0-18.489-15.644-34.133-34.133-34.133s-34.133 15.644-34.133 34.133 15.644 34.133 34.133 34.133 34.133-11.378 34.133-34.133zM231.822 189.156c0-18.489-15.644-34.133-34.133-34.133s-34.133 15.644-34.133 34.133c0 18.489 15.644 34.133 34.133 34.133s34.133-14.222 34.133-34.133z" />
<glyph unicode="&#xe616;" glyph-name="C8_CreateReportQuery" d="M848 819.2v54.4c0 54.4-35.2 86.4-92.8 86.4s-89.6-32-89.6-86.4v-54.4h-60.8v54.4c0 54.4-35.2 86.4-92.8 86.4s-89.6-32-89.6-86.4v-54.4h-60.8v54.4c-3.2 54.4-35.2 86.4-92.8 86.4s-92.8-32-92.8-86.4v-54.4h-102.4v-883.2h880v883.2h-105.6zM265.6 297.6v-134.4h-118.4v134.4h118.4zM147.2 323.2v147.2h121.6v-147.2h-121.6zM291.2 297.6h585.6v-134.4h-585.6c0 0 0 134.4 0 134.4zM291.2 323.2v147.2h585.6v-147.2c0 0-585.6 0-585.6 0zM713.6 873.6c0 25.6 12.8 38.4 41.6 38.4s41.6-9.6 41.6-38.4v-147.2c0-25.6-12.8-38.4-41.6-38.4s-41.6 9.6-41.6 38.4c0 0 0 147.2 0 147.2zM470.4 873.6c0 25.6 12.8 38.4 41.6 38.4s41.6-9.6 41.6-38.4v-147.2c0-25.6-12.8-38.4-41.6-38.4s-41.6 9.6-41.6 38.4c0 0 0 147.2 0 147.2zM876.8 620.8v-128h-585.6v128h585.6zM227.2 873.6c0 25.6 12.8 38.4 41.6 38.4s41.6-9.6 41.6-38.4v-147.2c0-25.6-12.8-38.4-41.6-38.4s-41.6 9.6-41.6 38.4c0 0 0 147.2 0 147.2zM265.6 620.8v-128h-118.4v128h118.4zM147.2 137.6h121.6v-128h-121.6v128zM291.2 9.6v128h585.6v-128c0 0-585.6 0-585.6 0z" />
<glyph unicode="&#xe617;" glyph-name="CM3_Edit" d="M649.6 774.4l-560-563.2-89.6-275.2 278.4 89.6 560 560c0 0-188.8 188.8-188.8 188.8zM217.6 182.4l-32 32 467.2 464 32-32-467.2-464zM713.6 838.4l124.8 121.6 185.6-185.6-121.6-121.6c0-3.2-188.8 185.6-188.8 185.6z" />
<glyph unicode="&#xe618;" glyph-name="CM4_Delete" d="M512 960c-281.6 0-512-230.4-512-512s230.4-512 512-512c281.6 0 512 230.4 512 512s-230.4 512-512 512zM652.8 416l134.4-134.4c19.2-19.2 19.2-48 0-67.2l-38.4-38.4c-19.2-19.2-48-19.2-67.2 0l-134.4 134.4c-19.2 19.2-48 19.2-67.2 0l-134.4-134.4c-19.2-19.2-48-19.2-67.2 0l-38.4 38.4c-19.2 19.2-19.2 48 0 67.2l134.4 134.4c19.2 19.2 19.2 48 0 67.2l-134.4 134.4c-19.2 19.2-19.2 48 0 67.2l38.4 38.4c19.2 19.2 48 19.2 67.2 0l134.4-134.4c19.2-19.2 48-19.2 67.2 0l134.4 134.4c19.2 19.2 48 19.2 67.2 0l38.4-38.4c19.2-19.2 19.2-48 0-67.2l-134.4-134.4c-19.2-19.2-19.2-48 0-67.2v0z" />
<glyph unicode="&#xe619;" glyph-name="CM5_Open" d="M512 729.6c-278.4 0-512-275.2-512-275.2v-9.6c0 0 233.6-278.4 512-278.4s512 275.2 512 275.2v9.6c0 0-233.6 278.4-512 278.4zM512 275.2c-92.8 0-169.6 76.8-169.6 169.6s76.8 169.6 169.6 169.6 169.6-76.8 169.6-169.6-76.8-169.6-169.6-169.6zM556.8 441.6c0-41.6-32-73.6-73.6-73.6s-73.6 32-73.6 73.6 32 73.6 73.6 73.6c41.6 0 73.6-32 73.6-73.6z" />
<glyph unicode="&#xe61a;" glyph-name="CM6_Email" d="M1020.8 144c3.2 6.4 3.2 12.8 3.2 19.2v569.6c0 6.4 0 12.8-3.2 19.2l-332.8-288 332.8-320zM512 396.8l131.2 108.8 336 288c-6.4 3.2-12.8 3.2-16 3.2h-902.4c-6.4 0-12.8 0-16-3.2l336-288c0-3.2 131.2-108.8 131.2-108.8zM963.2 102.4c6.4 0 12.8 0 16 3.2l-336 323.2-131.2-105.6-131.2 105.6-336-326.4c6.4 0 9.6-3.2 16-3.2 0 3.2 902.4 3.2 902.4 3.2zM3.2 752c-3.2-6.4-3.2-12.8-3.2-19.2v-569.6c0-6.4 0-12.8 3.2-19.2l332.8 320-332.8 288z" />
<glyph unicode="&#xe61b;" glyph-name="CM7_SubmitFullTextJob" d="M297.6 736h160v160h268.8v-572.8l64-73.6v710.4h-396.8l-160-160v-547.2l64 73.6v409.6zM512 473.6l-240-275.2h179.2v-262.4h118.4v262.4h179.2l-236.8 275.2z" />
<glyph unicode="&#xe61c;" glyph-name="CM8_Export" d="M768 185.6h-640v393.6h83.2c44.8 48 102.4 89.6 172.8 121.6 6.4 3.2 9.6 3.2 16 6.4h-400v-652.8h896v329.6l-128-86.4v-112zM1024 576l-384 262.4v-156.8c0 0-441.6-35.2-441.6-368 0 0 54.4 137.6 268.8 163.2 35.2 3.2 89.6 9.6 172.8 9.6v-169.6l384 259.2z" />
<glyph unicode="&#xe61d;" glyph-name="CM9_AdHocSearch" d="M1024 96l-300.8 300.8c28.8 54.4 44.8 115.2 44.8 179.2 0 211.2-172.8 384-384 384s-384-172.8-384-384c0-211.2 172.8-384 384-384 64 0 124.8 16 179.2 44.8l300.8-300.8 160 160zM128 576c0 140.8 115.2 256 256 256s256-115.2 256-256-115.2-256-256-256-256 115.2-256 256z" />
<glyph unicode="&#xe61e;" glyph-name="CM11_CopyLink" d="M998.4 387.2c0 0 0 0 0 0-9.6 19.2-22.4 35.2-38.4 51.2l-192 192c0 0 0 0-3.2 3.2-25.6 22.4-54.4 41.6-86.4 51.2 38.4-38.4 60.8-86.4 70.4-140.8 3.2-16 3.2-32 3.2-48 0-6.4 0-12.8 0-22.4l121.6-118.4c9.6-9.6 19.2-22.4 22.4-38.4 3.2-9.6 3.2-16 3.2-25.6s0-19.2-3.2-28.8c-3.2-12.8-12.8-25.6-22.4-35.2l-76.8-76.8c-16-16-38.4-25.6-64-25.6s-48 9.6-64 25.6l-192 192c-6.4 6.4-12.8 16-16 25.6-6.4 12.8-9.6 25.6-9.6 38.4 0 9.6 0 19.2 3.2 25.6 0 0 0 0 0 3.2v0c0 3.2 3.2 6.4 3.2 9.6 0 0 0 3.2 3.2 3.2 0 3.2 3.2 6.4 3.2 6.4v0c0 0 0 0 0 3.2 3.2 3.2 6.4 6.4 9.6 9.6l28.8 28.8c0 3.2 0 6.4-3.2 9.6 0 3.2-3.2 6.4-3.2 6.4l-73.6 73.6-35.2-35.2c-3.2-3.2-6.4-6.4-9.6-9.6 0 0 0 0 0-3.2v0c-3.2-3.2-3.2-6.4-6.4-9.6 0 0 0-3.2-3.2-3.2v0c-3.2-3.2-3.2-6.4-6.4-9.6v0c0 0 0 0 0-3.2-3.2-3.2-3.2-6.4-6.4-12.8v0 0c-6.4-12.8-12.8-28.8-16-41.6 0-6.4-3.2-9.6-3.2-16-3.2-12.8-3.2-28.8-3.2-41.6s0-25.6 3.2-38.4c6.4-41.6 28.8-83.2 57.6-112l192-192c83.2-83.2 217.6-83.2 300.8 0l76.8 76.8c25.6 25.6 44.8 60.8 54.4 99.2 3.2 19.2 6.4 35.2 6.4 51.2 0 32-9.6 67.2-22.4 96 0 3.2 0 3.2-3.2 6.4 3.2-3.2 0 0 0 0s0 0 0 0v0zM633.6 643.2l-192 192c-83.2 83.2-217.6 83.2-300.8 0l-80-76.8c-25.6-25.6-44.8-60.8-54.4-96-3.2-19.2-6.4-35.2-6.4-54.4 0-32 9.6-67.2 22.4-96 0 0 0 0 0 0s0 0 0 0 0 0 0 0 0 0 0 0c9.6-19.2 22.4-35.2 35.2-48l192-192c0 0 0 0 3.2-3.2 25.6-22.4 54.4-41.6 86.4-51.2-38.4 38.4-60.8 86.4-70.4 140.8-3.2 16-3.2 32-3.2 48 0 6.4 0 12.8 0 22.4l-118.4 115.2c-9.6 9.6-19.2 22.4-22.4 38.4-3.2 9.6-3.2 16-3.2 25.6s0 19.2 3.2 28.8c6.4 12.8 12.8 25.6 22.4 35.2l76.8 76.8c35.2 35.2 92.8 35.2 128 0l192-192c6.4-6.4 12.8-16 16-25.6 6.4-12.8 9.6-25.6 9.6-38.4 0-9.6 0-19.2-3.2-25.6 0 0 0 0 0-3.2v0c0-3.2-3.2-6.4-3.2-9.6 0 0 0-3.2-3.2-3.2 0-3.2-3.2-6.4-3.2-6.4v0c0 0 0-3.2-3.2-3.2-3.2-3.2-6.4-6.4-9.6-9.6l-28.8-28.8c0-3.2 0-6.4 3.2-9.6 0-3.2 3.2-6.4 3.2-6.4l73.6-73.6 35.2 35.2c3.2 3.2 6.4 6.4 9.6 9.6 0 0 0 0 0 3.2v0c3.2 3.2 3.2 6.4 6.4 9.6 0 0 3.2 3.2 3.2 3.2 3.2 3.2 3.2 6.4 6.4 9.6v0 3.2c3.2 3.2 3.2 6.4 6.4 12.8v0 0c6.4 12.8 12.8 28.8 16 41.6 0 6.4 3.2 9.6 3.2 16 3.2 12.8 3.2 28.8 3.2 41.6s0 25.6-3.2 38.4c3.2 38.4-16 76.8-48 105.6v0z" />
<glyph unicode="&#xe61f;" glyph-name="CM12_AddtoFav" d="M700.8 339.2l323.2 214.4h-400l-112 406.4-112-406.4h-400l323.2-214.4-121.6-403.2 310.4 265.6 326.4-265.6-137.6 403.2z" />
<glyph unicode="&#xe620;" glyph-name="CM13_Print" d="M803.2 726.4v198.4h-582.4v-198.4h-220.8v-524.8h220.8v-230.4h412.8l166.4 166.4v64h224v524.8h-220.8zM953.6 656v-64h-128v64h128zM288 857.6h448v-131.2h-448c0 0 0 131.2 0 131.2zM566.4 38.4h-278.4v390.4h-67.2v-156.8h-76.8v240h742.4v-240h-83.2v156.8h-67.2v-227.2h-166.4l-3.2-163.2z" />
<glyph unicode="&#xe621;" glyph-name="CM15_Index" d="M275.2 880h748.8v-163.2h-748.8c0 0 0 163.2 0 163.2zM275.2 531.2h748.8v-163.2h-748.8c0 0 0 163.2 0 163.2zM275.2 179.2h748.8v-163.2h-748.8v163.2zM163.2 800c0-44.8-35.2-83.2-83.2-83.2s-80 35.2-80 83.2c0 44.8 35.2 83.2 83.2 83.2s80-38.4 80-83.2zM163.2 448c0-44.8-35.2-83.2-83.2-83.2s-80 38.4-80 83.2c0 44.8 35.2 83.2 83.2 83.2s80-35.2 80-83.2zM163.2 99.2c0-44.8-35.2-83.2-83.2-83.2s-80 38.4-80 83.2c0 44.8 35.2 83.2 83.2 83.2s80-38.4 80-83.2z" />
<glyph unicode="&#xe622;" glyph-name="Cm17_Scan" d="M896 515.2h-92.8v-70.4h60.8l89.6-99.2v-272h-883.2v272l89.6 99.2h64v70.4h-96l-128-144v-368h1024v371.2l-128 140.8zM220.8 358.4h579.2v534.4h-409.6l-169.6-169.6c0 0 0-364.8 0-364.8zM288 656h166.4v169.6h281.6v-400h-448v230.4z" />
<glyph unicode="&#xe623;" glyph-name="D1_Ascending" d="M316.8 380.8h412.8l-208 188.8-204.8-188.8z" />
<glyph unicode="&#xe624;" glyph-name="D2_Descending" d="M732.8 508.8h-416l208-188.8 208 188.8z" />
<glyph unicode="&#xe625;" glyph-name="D3_Query_Public" d="M355.2 790.4v0l-176-179.2v-675.2h227.2v70.4h-160v534.4h176v179.2h294.4v-230.4h70.4v300.8h-432zM876.8 480c0 0 0 0 0 0-3.2 0-3.2 0-6.4 0-80 0-147.2-67.2-147.2-147.2 0 0 0-51.2 0-89.6h-275.2v-307.2h403.2v307.2h-51.2c0 38.4 0 89.6 0 89.6 0 41.6 32 73.6 73.6 73.6 0 0 3.2 0 3.2 0s0 0 3.2 0c41.6 0 73.6-32 73.6-73.6 0 0 0-16 0-35.2h25.6v-9.6l-25.6-22.4c0-6.4 0-12.8 0-19.2h70.4c0 38.4 0 89.6 0 89.6 0 76.8-64 144-147.2 144v0zM176 960v0l-176-179.2v-675.2h128v70.4h-57.6v534.4h176v179.2h294.4v-60.8h67.2v131.2h-432z" />
<glyph unicode="&#xe626;" glyph-name="D4_Query_Private" d="M364.8 790.4v0l-182.4-179.2v-675.2h377.6v70.4h-304v534.4h182.4v179.2h300.8v-201.6h73.6v272h-448zM182.4 960v0l-182.4-179.2v-675.2h134.4v70.4h-60.8v534.4h182.4v179.2h300.8v-60.8h73.6v131.2h-448zM969.6 240v89.6c0 80-67.2 147.2-150.4 147.2 0 0-3.2 0-3.2 0s-3.2 0-3.2 0c-83.2 0-150.4-67.2-150.4-147.2v-89.6h-54.4v-304h416v304h-54.4zM736 329.6c0 41.6 35.2 73.6 76.8 73.6 0 0 3.2 0 3.2 0s0 0 3.2 0c41.6 0 76.8-32 76.8-73.6v-89.6h-160v89.6z" />
<glyph unicode="&#xe627;" glyph-name="D5_MAS_Public" d="M318.578 58.311h-199.111v585.956h190.578v193.422h315.733v-257.422h76.8v337.067h-469.333l-190.578-196.267v-742.4h275.911v79.644zM823.467 577.422h-5.689c-88.178 0-157.867-73.956-157.867-164.978 0 0 0-55.467 0-96.711h-297.244v-337.067h433.778v337.067h-58.311c0 41.244 0 96.711 0 96.711 0 44.089 35.556 82.489 79.644 82.489h2.844c0 0 0 0 2.844 0 44.089 0 79.644-35.556 79.644-82.489 0 0 0-17.067 0-38.4h27.022v-11.378l-27.022-27.022c0-8.533 0-14.222 0-22.756h78.222c0 41.244 0 96.711 0 96.711 0 93.867-69.689 167.822-157.867 167.822v0zM283.022 514.844h248.889v-64h-248.889v64zM283.022 376.889h58.311v-64h-58.311v64zM283.022 236.089h58.311v-64h-58.311v64zM238.933 483.556c0-17.067-14.222-32.711-32.711-32.711s-32.711 14.222-32.711 32.711c0 17.067 14.222 32.711 32.711 32.711s32.711-15.644 32.711-32.711zM238.933 342.756c0-17.067-14.222-32.711-32.711-32.711s-32.711 14.222-32.711 32.711c0 17.067 14.222 32.711 32.711 32.711s32.711-12.8 32.711-32.711zM238.933 204.8c0-17.067-14.222-32.711-32.711-32.711s-32.711 14.222-32.711 32.711c0 17.067 14.222 32.711 32.711 32.711s32.711-15.644 32.711-32.711z" />
<glyph unicode="&#xe628;" glyph-name="D6_MAS_Private" d="M500.622 58.311h-381.156v585.956h193.422v193.422h322.844v-246.044h75.378v325.689h-475.022l-193.422-196.267v-742.4h457.956v79.644zM923.022 315.733v96.711c0 91.022-71.111 164.978-160.711 164.978h-5.689c-88.178 0-160.711-73.956-160.711-164.978v-96.711h-55.467v-337.067h440.889v337.067h-58.311zM675.556 412.444c0 44.089 35.556 82.489 79.644 82.489h2.844c0 0 0 0 2.844 0 44.089 0 79.644-35.556 79.644-82.489v-96.711h-167.822l2.844 96.711zM285.867 514.844h251.733v-64h-251.733v64zM285.867 376.889h201.956v-64h-201.956c0-2.844 0 64 0 64zM285.867 236.089h187.733v-64h-187.733v64zM241.778 483.556c0-17.067-14.222-32.711-32.711-32.711s-32.711 14.222-32.711 32.711c0 17.067 14.222 32.711 32.711 32.711s32.711-15.644 32.711-32.711zM241.778 342.756c0-17.067-14.222-32.711-32.711-32.711s-32.711 14.222-32.711 32.711c0 17.067 14.222 32.711 32.711 32.711s32.711-12.8 32.711-32.711zM241.778 204.8c0-17.067-14.222-32.711-32.711-32.711s-32.711 14.222-32.711 32.711c0 17.067 14.222 32.711 32.711 32.711s32.711-15.644 32.711-32.711z" />
<glyph unicode="&#xe629;" glyph-name="dropdown" d="M512 275.2l-240 345.6h480l-240-345.6z" />
<glyph unicode="&#xe62a;" glyph-name="E2_Customize" d="M1020.8 563.2c-3.2 0-54.4 0-118.4 0s-76.8 35.2-32 80c44.8 44.8 80 80 83.2 83.2 0 0 0 3.2 0 6.4 0 0-38.4 38.4-80 80s-76.8 76.8-80 80c0 0-3.2 0-6.4 0s-38.4-38.4-83.2-83.2-80-28.8-80 32 0 115.2 0 118.4 0 3.2-3.2 3.2-51.2 0-112 0-108.8 0-112 0-3.2 0-3.2-3.2 0-54.4 0-118.4-35.2-76.8-80-32-76.8 76.8-80 80-3.2 0-6.4 0-35.2-38.4-76.8-80c-41.6-41.6-76.8-76.8-80-80 0 0 0-3.2 0-6.4 0 0 38.4-38.4 83.2-83.2s28.8-80-32-80-115.2 0-118.4 0-3.2 0-3.2 0c0-3.2 0-51.2 0-112s0-108.8 0-112c0-3.2 0-3.2 3.2-3.2s54.4 0 118.4 0 76.8-35.2 32-80c-44.8-44.8-80-80-83.2-83.2 0 0 0-3.2 0-6.4 0 0 38.4-38.4 80-80s76.8-76.8 80-80c0 0 3.2 0 6.4 0 0 0 38.4 38.4 83.2 83.2s80 28.8 80-32 0-115.2 0-118.4c0-3.2 0-3.2 3.2-3.2s51.2 0 112 0 108.8 0 112 0 3.2 0 3.2 3.2 0 54.4 0 118.4 35.2 76.8 80 32 80-80 83.2-83.2c0 0 3.2 0 6.4 0 0 0 38.4 38.4 80 80s76.8 76.8 80 80c0 0 0 3.2 0 6.4 0 0-38.4 38.4-83.2 83.2s-28.8 80 32 80 115.2 0 118.4 0 3.2 0 3.2 3.2 0 51.2 0 112 0 108.8 0 112c-6.4 0-6.4 3.2-9.6 3.2zM518.4 278.4c-96 0-172.8 76.8-172.8 172.8s76.8 172.8 172.8 172.8c96 0 172.8-76.8 172.8-172.8s-76.8-172.8-172.8-172.8z" />
<glyph unicode="&#xe62b;" glyph-name="E3_CheckboxEmpty" d="M758.4 864h-492.8c-92.8 0-169.6-83.2-169.6-182.4v-467.2c0-99.2 76.8-182.4 169.6-182.4h496c92.8 0 169.6 83.2 169.6 182.4v467.2c-3.2 99.2-80 182.4-172.8 182.4zM832 214.4c0-44.8-32-80-73.6-80h-492.8c-41.6 0-73.6 35.2-73.6 80v467.2c0 44.8 32 80 73.6 80h496c38.4 0 70.4-35.2 70.4-80v-467.2z" />
<glyph unicode="&#xe62c;" glyph-name="E4_Checkbox_Checked" d="M758.4 864h-492.8c-92.8 0-169.6-83.2-169.6-182.4v-467.2c0-99.2 76.8-182.4 169.6-182.4h496c92.8 0 169.6 83.2 169.6 182.4v467.2c-3.2 99.2-80 182.4-172.8 182.4zM832 214.4c0-44.8-32-80-73.6-80h-492.8c-41.6 0-73.6 35.2-73.6 80v467.2c0 44.8 32 80 73.6 80h496c38.4 0 70.4-35.2 70.4-80v-467.2zM307.2 406.4c-6.4 6.4-6.4 19.2 0 25.6l44.8 48c6.4 6.4 19.2 6.4 25.6 0l70.4-76.8c6.4-6.4 19.2-6.4 25.6 0l195.2 211.2c6.4 6.4 19.2 6.4 25.6 0l44.8-48c6.4-6.4 6.4-19.2 0-25.6l-236.8-259.2c-6.4-6.4-19.2-12.8-28.8-12.8h-25.6c-9.6 0-22.4 6.4-28.8 12.8 0 3.2-112 124.8-112 124.8z" />
<glyph unicode="&#xe62d;" glyph-name="E5_Checkmark" d="M304 400c-6.4 6.4-6.4 19.2 0 25.6l44.8 44.8c6.4 6.4 19.2 6.4 25.6 0l70.4-70.4c6.4-6.4 19.2-6.4 25.6 0l192 195.2c6.4 6.4 19.2 6.4 25.6 0l44.8-41.6c6.4-6.4 6.4-19.2 0-25.6l-240-240c-6.4-6.4-19.2-12.8-28.8-12.8h-19.2c-9.6 0-22.4 6.4-28.8 12.8l-112 112z" />
<glyph unicode="&#xe62e;" glyph-name="E6_Doc_LatestRev" d="M880 960v-1024h-736v809.6l211.2 214.4c0 0 524.8 0 524.8 0zM793.6 873.6h-352v-214.4h-211.2v-640h563.2v854.4zM576 355.2l-227.2 185.6v-368l227.2 182.4zM604.8 179.2h70.4v364.8h-70.4v-364.8z" />
<glyph unicode="&#xe62f;" glyph-name="E7_Doc_CheckedOut" d="M189.156 638.578c27.022 179.2 287.289 274.489 450.844 125.156l-54.044-48.356 256-5.689-5.689 220.444-54.044-48.356c-209.067 182.044-612.978 21.333-593.067-243.2zM840.533 201.956v463.644h-658.489v-729.6h381.156c120.889 0 277.333 156.444 277.333 265.956zM256 4.267v587.378h513.422v-382.578c0-109.511-142.222-68.267-142.222-68.267s42.667-133.689-64-133.689c-68.267-2.844-89.6-2.844-307.2-2.844z" />
<glyph unicode="&#xe630;" glyph-name="E8_Doc_PrevRev" d="M880 960v-1024h-736v809.6l211.2 214.4c0 0 524.8 0 524.8 0zM793.6 873.6h-352v-214.4h-211.2v-640h566.4c-3.2 0-3.2 854.4-3.2 854.4zM358.4 390.4l297.6 214.4v-428.8l-297.6 214.4z" />
<glyph unicode="&#xe631;" glyph-name="E9_Doc_RetHold" d="M473.6 19.2c28.8-35.2 80-60.8 121.6-83.2h-595.2v809.6l211.2 214.4h524.8v-364.8c-22.4 0-54.4-6.4-86.4-16v294.4h-352v-214.4h-211.2v-640h387.2zM716.8-57.6c169.6 0 307.2 137.6 307.2 307.2s-137.6 307.2-307.2 307.2-307.2-137.6-307.2-307.2 134.4-307.2 307.2-307.2c0 0 0 0 0 0zM716.8 35.2c-118.4 0-217.6 96-217.6 214.4s96 214.4 217.6 214.4 214.4-96 214.4-214.4-99.2-214.4-214.4-214.4v0zM678.4 380.8v-144l12.8-12.8 112-96 48 54.4-112 96 12.8-28.8v128l-73.6 3.2z" />
<glyph unicode="&#xe632;" glyph-name="E9_Document_retention_hold" d="M425.6 131.2v-76.8h-425.6v716.8l195.2 188.8h476.8v-451.2h-76.8v374.4h-323.2v-188.8h-195.2v-563.2h348.8zM937.6 438.4h-390.4l-86.4-227.2v-275.2h563.2v275.2c0 0-86.4 227.2-86.4 227.2zM537.6 233.6l54.4 166.4h304l54.4-166.4h-412.8zM915.2 259.2l-6.4 22.4h-329.6l-6.4-22.4h342.4zM883.2 352l-6.4 19.2h-268.8l-6.4-19.2h281.6zM595.2 326.4l-6.4-22.4h313.6l-6.4 22.4h-300.8z" />
<glyph unicode="&#xe633;" glyph-name="F1_ExpandPanel" d="M931.2-64v1024l-838.4-512 838.4-512z" />
<glyph unicode="&#xe634;" glyph-name="F2_CollapsePanel" d="M92.8 960v-1024l838.4 512-838.4 512z" />
<glyph unicode="&#xe635;" glyph-name="F3_PrevPage" d="M931.2-64v1024l-838.4-512 838.4-512z" />
<glyph unicode="&#xe636;" glyph-name="F4_NextPage" d="M92.8 960v-1024l838.4 512-838.4 512z" />
<glyph unicode="&#xe637;" glyph-name="G1_Close" d="M512-64c281.6 0 512 230.4 512 512s-230.4 512-512 512c-281.6 0-512-230.4-512-512s230.4-512 512-512zM512 902.4c249.6 0 454.4-204.8 454.4-454.4s-204.8-454.4-454.4-454.4-454.4 204.8-454.4 454.4 204.8 454.4 454.4 454.4zM400 476.8c16-16 16-38.4 0-54.4l-105.6-105.6c-16-16-16-38.4 0-54.4l32-32c16-16 38.4-16 54.4 0l105.6 105.6c16 16 38.4 16 54.4 0l105.6-105.6c16-16 38.4-16 54.4 0l32 32c16 16 16 38.4 0 54.4l-105.6 105.6c-16 16-16 38.4 0 54.4l105.6 105.6c16 16 16 38.4 0 54.4l-32 32c-16 16-38.4 16-54.4 0l-105.6-105.6c-16-16-38.4-16-54.4 0l-105.6 105.6c-16 16-38.4 16-54.4 0l-32-32c-16-16-16-38.4 0-54.4l105.6-105.6z" />
<glyph unicode="&#xe638;" glyph-name="G4_MoveUp" d="M0 448c0-281.6 230.4-512 512-512s512 230.4 512 512-230.4 512-512 512-512-230.4-512-512zM764.8 297.6h-512l256 422.4 256-422.4z" />
<glyph unicode="&#xe639;" glyph-name="G5_MoveDown" d="M1024 448c0 281.6-230.4 512-512 512s-512-230.4-512-512 230.4-512 512-512 512 230.4 512 512zM259.2 598.4h512l-256-422.4c0 3.2-256 422.4-256 422.4z" />
<glyph unicode="&#xe63a;" glyph-name="H1_Range" d="M0 918.4v-940.8h1024v940.8c0 0-1024 0-1024 0zM937.6 64h-851.2v611.2h854.4v-611.2zM592 371.2h99.2v70.4h137.6v57.6h-137.6v73.6h-99.2v-73.6h-396.8v-57.6h396.8v-70.4zM406.4 345.6h-99.2v-70.4h-112v-57.6h112v-70.4h99.2v70.4h422.4v57.6h-422.4v70.4z" />
<glyph unicode="&#xe63b;" glyph-name="H2_List" d="M854.4 960h-684.8c-92.8 0-169.6-76.8-169.6-169.6v-681.6c0-96 76.8-172.8 169.6-172.8h681.6c92.8 0 169.6 76.8 169.6 169.6v684.8c3.2 92.8-73.6 169.6-166.4 169.6zM896 704v-140.8h-624v140.8h624zM246.4 371.2v-137.6h-118.4v137.6c0 0 118.4 0 118.4 0zM128 396.8v137.6h118.4v-137.6h-118.4zM272 371.2h624v-137.6h-624c0 0 0 137.6 0 137.6zM272 396.8v137.6h624v-137.6h-624zM246.4 704v-140.8h-118.4v140.8h118.4zM128 105.6v99.2h118.4v-140.8h-76.8c-22.4 0-41.6 19.2-41.6 41.6zM854.4 64h-582.4v144h624v-99.2c0-25.6-19.2-44.8-41.6-44.8z" />
<glyph unicode="&#xe63c;" glyph-name="H3_Date" d="M848 819.2v54.4c0 54.4-35.2 86.4-89.6 86.4-57.6 0-92.8-32-92.8-86.4v-54.4h-60.8v54.4c0 54.4-35.2 86.4-92.8 86.4s-92.8-32-92.8-86.4v-54.4h-60.8v54.4c0 54.4-32 86.4-89.6 86.4s-92.8-32-92.8-86.4v-54.4h-102.4v-883.2h880v883.2h-105.6zM713.6 873.6c0 25.6 12.8 38.4 41.6 38.4s41.6-9.6 41.6-38.4v-147.2c0-25.6-12.8-38.4-41.6-38.4s-41.6 9.6-41.6 38.4v147.2zM470.4 873.6c0 25.6 12.8 38.4 41.6 38.4s41.6-9.6 41.6-38.4v-147.2c0-25.6-12.8-38.4-41.6-38.4s-41.6 9.6-41.6 38.4v147.2zM227.2 873.6c0 25.6 12.8 38.4 41.6 38.4s41.6-9.6 41.6-38.4v-147.2c0-25.6-12.8-38.4-41.6-38.4s-41.6 9.6-41.6 38.4v147.2zM876.8 9.6h-729.6v611.2h732.8v-611.2zM534.4 230.4c0 44.8-28.8 70.4-83.2 83.2v0c48 16 73.6 41.6 73.6 83.2s-41.6 73.6-108.8 73.6c-32 0-67.2-3.2-96-19.2l9.6-60.8c22.4 9.6 44.8 19.2 70.4 19.2 38.4 0 48-12.8 48-32 0-28.8-25.6-41.6-73.6-44.8v-60.8c67.2-3.2 86.4-19.2 86.4-51.2 0-25.6-22.4-44.8-60.8-44.8-28.8 0-54.4 3.2-83.2 16l-9.6-60.8c22.4-9.6 54.4-16 83.2-16 80 9.6 144 44.8 144 115.2v0zM656 380.8v-249.6h70.4v336h-35.2l-102.4-51.2 9.6-60.8 57.6 25.6z" />
<glyph unicode="&#xe63d;" glyph-name="H6_RadioButton" d="M512 768c-176 0-320-144-320-320s144-320 320-320c176 0 320 144 320 320s-144 320-320 320zM512 208c-131.2 0-240 108.8-240 240s108.8 240 240 240 240-108.8 240-240-108.8-240-240-240z" />
<glyph unicode="&#xe63e;" glyph-name="H7_RadioButton_Selected" d="M512 768c-176 0-320-144-320-320s144-320 320-320c176 0 320 144 320 320s-144 320-320 320zM512 208c-131.2 0-240 108.8-240 240s108.8 240 240 240 240-108.8 240-240-108.8-240-240-240zM672 448c0-89.6-70.4-160-160-160s-160 70.4-160 160 70.4 160 160 160 160-70.4 160-160z" />
<glyph unicode="&#xe63f;" glyph-name="upload" d="M841.956 595.911h-247.467v364.089h-163.556v-364.089h-247.467l329.956-379.733zM881.778 320v-241.778h-739.556v241.778h-142.222v-312.889c0-39.822 31.289-71.111 71.111-71.111h881.778c39.822 0 71.111 31.289 71.111 71.111v312.889h-142.222z" />
<glyph unicode="&#xe641;" glyph-name="E11_File_for_Retention" d="M473.6 19.2c28.8-35.2 80-60.8 121.6-83.2h-595.2v809.6l211.2 214.4h524.8v-371.2c-22.4 0-54.4 0-86.4-9.6v294.4h-352v-214.4h-211.2v-640h387.2zM716.8-57.6c169.6 0 307.2 137.6 307.2 307.2s-137.6 307.2-307.2 307.2-307.2-137.6-307.2-307.2 134.4-307.2 307.2-307.2c0 0 0 0 0 0zM716.8 35.2c-118.4 0-217.6 96-217.6 214.4s96 214.4 217.6 214.4 214.4-96 214.4-214.4-99.2-214.4-214.4-214.4v0zM678.4 380.8v-144l12.8-12.8 112-96 48 54.4-112 96 12.8-28.8v128l-73.6 3.2z" />
<glyph unicode="&#xe642;" glyph-name="E12_File_for_Retention_a" d="M473.6 19.2c28.8-35.2 80-60.8 121.6-83.2h-595.2v809.6l211.2 214.4h524.8v-371.2c-22.4 0-54.4 0-86.4-9.6v294.4h-352v-214.4h-211.2v-640h387.2zM716.8-57.6c169.6 0 307.2 137.6 307.2 307.2s-137.6 307.2-307.2 307.2-307.2-137.6-307.2-307.2 134.4-307.2 307.2-307.2c0 0 0 0 0 0zM716.8 35.2c-118.4 0-217.6 96-217.6 214.4s96 214.4 217.6 214.4 214.4-96 214.4-214.4-99.2-214.4-214.4-214.4v0zM678.4 380.8v-144l12.8-12.8 112-96 48 54.4-112 96 12.8-28.8v128l-73.6 3.2zM147.2 435.2c-6.4 6.4-6.4 12.8 0 19.2l32 32c6.4 6.4 12.8 6.4 19.2 0l51.2-51.2c6.4-6.4 12.8-6.4 19.2 0l144 147.2c6.4 6.4 12.8 6.4 19.2 0l32-32c6.4-6.4 6.4-12.8 0-19.2l-172.8-179.2c-6.4-6.4-16-9.6-22.4-9.6h-16c-6.4 0-16 3.2-22.4 9.6l-83.2 83.2z" />
<glyph unicode="&#xe643;" glyph-name="E13_Document_normal" d="M880 960v-1024h-736v809.6l211.2 214.4c0 0 524.8 0 524.8 0zM793.6 873.6h-352v-214.4h-211.2v-640h563.2v854.4z" />
<glyph unicode="&#xe644;" glyph-name="E14_Refresh" d="M126.578 529.067c31.289 0 62.578 18.489 71.111 49.778 52.622 120.889 174.933 209.067 314.311 209.067 78.222 0 149.333-28.444 204.8-68.267l-44.089-5.689c-15.644-2.844-28.444-15.644-28.444-31.289s5.689-31.289 18.489-36.978l247.467-110.933c12.8-2.844 21.333-2.844 34.133 2.844 9.956 5.689 15.644 15.644 15.644 28.444v270.222c0 15.644-9.956 28.444-25.6 34.133-15.644 2.844-31.289 0-36.978-15.644l-34.133-49.778c-89.6 88.178-214.756 140.8-351.289 140.8-209.067 0-385.422-123.733-460.8-304.356-8.533-25.6-8.533-54.044 7.111-75.378 14.222-24.178 39.822-36.978 68.267-36.978v0zM965.689 329.956c-15.644 21.333-39.822 34.133-68.267 34.133-31.289 0-62.578-18.489-71.111-49.778-52.622-120.889-170.667-209.067-314.311-209.067-78.222 0-149.333 28.444-204.8 68.267l44.089 5.689c15.644 2.844 28.444 15.644 28.444 31.289s-5.689 31.289-18.489 36.978l-247.467 110.933c-12.8 2.844-21.333 2.844-34.133-2.844-9.956-5.689-15.644-15.644-15.644-28.444v-270.222c0-15.644 9.956-28.444 25.6-34.133s31.289 0 36.978 15.644l34.133 49.778c89.6-85.333 214.756-137.956 351.289-137.956 209.067 0 385.422 125.156 460.8 304.356 8.533 25.6 8.533 54.044-7.111 75.378v0z" />
<glyph unicode="&#xe645;" glyph-name="H8_Choose_for_Search" d="M1024 96l-300.8 300.8c28.8 54.4 44.8 115.2 44.8 179.2 0 211.2-172.8 384-384 384s-384-172.8-384-384 172.8-384 384-384c64 0 124.8 16 179.2 44.8l304-304 156.8 163.2zM128 576c0 140.8 115.2 256 256 256s256-115.2 256-256-115.2-256-256-256-256 118.4-256 256z" />
<glyph unicode="&#xe646;" glyph-name="H9_Filed_to_Display" d="M12.8 361.6c-16 16-16 41.6 0 57.6l102.4 102.4c16 16 41.6 16 57.6 0l166.4-166.4c16-16 41.6-16 57.6 0l454.4 457.6c16 16 41.6 16 57.6 0l102.4-102.4c16-16 16-41.6 0-57.6l-553.6-550.4c-16-16-48-28.8-70.4-28.8h-48c-22.4 0-54.4 12.8-70.4 28.8l-256 259.2z" />
<glyph unicode="&#xe647;" glyph-name="H10_CAQ_Add" d="M518.4 444.8l-262.4-265.6v-249.6l512 512-512 515.2v-249.6l262.4-262.4z" />
<glyph unicode="&#xe648;" glyph-name="H11_CAQ_Add_All" d="M329.6 444.8l-262.4-262.4v-249.6l512 512-512 512v-249.6l262.4-262.4zM707.2 448l-262.4-262.4v-249.6l512 512-512 512v-249.6l262.4-262.4z" />
<glyph unicode="&#xe649;" glyph-name="H12_CAQ_Remove" d="M768 707.2v249.6l-512-512 512-512v249.6l-262.4 262.4 262.4 262.4z" />
<glyph unicode="&#xe64a;" glyph-name="H13_Not_Selected_Field" d="M2.844 867.556l91.022 91.022 930.133-930.133-91.022-91.022-930.133 930.133zM932.978 958.578l91.022-91.022-930.133-930.133-91.022 91.022 930.133 930.133z" />
<glyph unicode="&#xe64b;" glyph-name="E10_Document_retention_hold_and_previous_revision" d="M425.6 131.2v-73.6h-425.6v710.4l195.2 192h476.8v-451.2h-76.8v377.6h-323.2v-192h-195.2v-566.4c0 3.2 348.8 3.2 348.8 3.2zM163.2 476.8l262.4 195.2v-387.2l-262.4 192zM940.8 435.2h-393.6l-83.2-227.2v-272h560v275.2l-83.2 224zM537.6 230.4l51.2 163.2h304l54.4-163.2c3.2 0-409.6 0-409.6 0zM915.2 256l-6.4 22.4h-329.6l-6.4-22.4c0 0 342.4 0 342.4 0zM883.2 348.8l-6.4 19.2h-268.8l-6.4-19.2h281.6zM595.2 326.4l-9.6-22.4h313.6l-6.4 22.4h-297.6z" />
<glyph unicode="&#xe64c;" glyph-name="E15_Document_Retention" d="M473.6 18.489c28.444-35.556 79.644-61.156 122.311-82.489h-595.911v809.244l210.489 214.756h524.8v-371.2c-22.756 0-54.044 0-86.756-9.956v294.4h-351.289v-214.756h-210.489v-640h386.844zM716.8-56.889c169.244 0 307.2 137.956 307.2 307.2s-137.956 307.2-307.2 307.2-307.2-137.956-307.2-307.2 135.111-307.2 307.2-307.2v0zM716.8 35.556c-118.044 0-217.6 96.711-217.6 214.756s96.711 214.756 217.6 214.756 214.756-96.711 214.756-216.178-99.556-213.333-214.756-213.333v0zM678.4 381.156v-143.644l12.8-12.8 112.356-96.711 48.356 54.044-112.356 96.711 12.8-28.444v128l-73.956 2.844z" />
<glyph unicode="&#xe64e;" glyph-name="IMC1_AppendBatch" d="M661.333 122.311h-88.178l1.422 256h133.689l-1.422 153.6 220.444 1.422v187.733c0 14.222-12.8 29.867-27.022 29.867h-466.489l-32.711 64c-7.111 14.222-22.756 36.978-35.556 36.978h-224.711c-12.8 0-34.133-14.222-39.822-29.867l-34.133-73.956h-39.822c-12.8 2.844-27.022-11.378-27.022-29.867v-644.267c0-14.222 12.8-29.867 27.022-29.867h679.822v78.222h-45.511zM877.511 459.378h-116.622v-149.333h-145.067v-118.044h146.489v-149.333h116.622v149.333h145.067v118.044h-146.489v149.333z" />
<glyph unicode="&#xe900;" glyph-name="Retention" d="M817.6 68.8c-16 0-30.4-12.8-30.4-30.4v-43.2h-667.2v632h241.6c16 0 30.4 12.8 30.4 30.4v241.6h395.2v-374.4c0-16 12.8-30.4 30.4-30.4s30.4 12.8 30.4 30.4v404.8c0 16-12.8 30.4-30.4 30.4h-440c-3.2 0-6.4 0-8-1.6-11.2 3.2-22.4 0-28.8-8l-272-272c-8-8-11.2-19.2-8-28.8 0-3.2-1.6-4.8-1.6-8v-675.2c0-16 12.8-30.4 30.4-30.4h728c16 0 30.4 12.8 30.4 30.4v73.6c0 16-14.4 28.8-30.4 28.8zM331.2 857.6v-169.6h-168l168 169.6zM497.6 260.8v-174.4c0-28.8 17.6-52.8 40-52.8h444.8c22.4 0 40 24 40 52.8v176l-262.4-48-262.4 46.4zM872 443.2v0 44.8c0 28.8-17.6 52.8-40 52.8h-150.4c-22.4 0-40-24-40-52.8v-44.8h-102.4c-22.4 0-40-24-40-52.8v-129.6l262.4-46.4 262.4 48v128c0 28.8-17.6 52.8-40 52.8h-112zM820.8 342.4v-64h-116.8v76.8h116.8v-12.8zM833.6 444.8v0h-153.6v19.2c0 16 9.6 27.2 20.8 27.2h112c11.2 0 20.8-12.8 20.8-27.2v-19.2z" />
<glyph unicode="&#xe901;" glyph-name="RetentionHold" d="M817.6 68.8c-16 0-30.4-12.8-30.4-30.4v-43.2h-667.2v632h241.6c16 0 30.4 12.8 30.4 30.4v241.6h395.2v-374.4c0-16 12.8-30.4 30.4-30.4s30.4 12.8 30.4 30.4v404.8c0 16-12.8 30.4-30.4 30.4h-440c-3.2 0-6.4 0-8-1.6-11.2 3.2-22.4 0-28.8-8l-272-272c-8-8-11.2-19.2-8-28.8 0-3.2-1.6-4.8-1.6-8v-675.2c0-16 12.8-30.4 30.4-30.4h728c16 0 30.4 12.8 30.4 30.4v73.6c0 16-14.4 28.8-30.4 28.8zM331.2 857.6v-169.6h-168l168 169.6zM902.4 472c-115.2 67.2-264 27.2-331.2-88s-27.2-264 88-331.2c115.2-67.2 264-27.2 331.2 88s28.8 264-88 331.2zM950.4 164.8c-52.8-92.8-171.2-124.8-264-70.4-92.8 52.8-124.8 171.2-70.4 264 52.8 92.8 171.2 124.8 264 70.4 91.2-52.8 123.2-171.2 70.4-264zM870.4 249.6l-65.6-1.6-3.2 120c0 19.2-16 33.6-35.2 33.6s-33.6-16-33.6-35.2l3.2-153.6c0-19.2 16-33.6 35.2-33.6l99.2 3.2c19.2 0 33.6 16 33.6 35.2 0 17.6-16 32-33.6 32z" />
<glyph unicode="&#xe902;" glyph-name="OtherTypeUser" d="M364.544 222.72h344.064c16.384 0 36.864 8.192 45.056 20.48 12.288 12.288 16.384 32.768 12.288 49.152l-20.48 106.496c-8.192 40.96-40.96 73.728-81.92 81.92l-28.672 4.096c-16.384 4.096-28.672 16.384-32.768 32.768l-4.096 24.576c0 8.192 0 16.384 8.192 24.576 24.576 24.576 49.152 57.344 61.44 94.208 20.48 4.096 36.864 20.48 40.96 45.056 8.192 32.768-8.192 61.44-28.672 65.536v0c-8.192 81.92-36.864 139.264-143.36 139.264-102.4 0-135.168-61.44-143.36-139.264v0c-24.576-4.096-36.864-32.768-28.672-65.536 4.096-24.576 24.576-45.056 40.96-45.056 12.288-36.864 36.864-69.632 61.44-90.112 8.192-4.096 8.192-12.288 8.192-24.576l-4.096-24.576c-4.096-16.384-16.384-28.672-32.768-32.768l-28.672-4.096c-40.96-8.192-73.728-40.96-81.92-81.92l-20.48-106.496c-4.096-16.384 0-36.864 12.288-49.152 8.192-16.384 24.576-24.576 45.056-24.576zM548.864 161.28c-16.384 16.384-45.056 16.384-61.44 0l-147.456-147.456c-16.384-16.384-16.384-45.056 0-61.44s45.056-16.384 61.44 0l118.784 118.784 118.784-118.784c8.192-8.192 20.48-12.288 32.768-12.288s24.576 4.096 32.768 12.288c16.384 16.384 16.384 45.056 0 61.44l-155.648 147.456z" />
<glyph unicode="&#xe903;" glyph-name="OtherTypeUser2" d="M510.97 960c-282.27 0-510.97-230.761-510.97-513.030s228.7-510.97 510.97-510.97c282.27 0 510.97 228.7 510.97 510.97s-228.7 513.030-510.97 513.030zM805.602 164.7c0 12.362 0 20.604 0 20.604 0 70.052-80.354 94.777-123.622 113.32-16.483 6.181-45.328 20.604-76.233 35.026-10.302 4.121-18.543 18.543-20.604 28.845l-4.121 32.966c22.664 20.604 43.268 51.509 47.388 84.475h6.181c8.241 0 16.483 6.181 16.483 14.423l8.241 51.509c2.060 10.302-8.241 16.483-16.483 16.483 0 2.060 0 2.060 0 2.060 2.060 6.181 2.060 12.362 2.060 18.543 0 4.121 0 10.302 2.060 14.423 0 24.724-4.121 45.328-10.302 55.63-6.181 16.483-16.483 32.966-30.905 45.328-39.147 37.087-86.535 53.569-125.682 22.664-26.785 4.121-59.751-8.241-82.414-35.026-12.362-14.423-20.604-30.905-24.724-47.388-2.060-10.302-4.121-22.664-6.181-37.087 0-14.423 0-28.845 4.121-39.147-8.241 0-16.483-6.181-16.483-16.483l8.241-51.509c2.060-8.241 8.241-14.423 16.483-14.423h4.121c8.241-37.087 26.785-65.932 47.388-86.535l2.060-28.845c-2.060-12.362-10.302-24.724-20.604-28.845-28.845-14.423-57.69-28.845-76.233-35.026-41.207-16.483-123.622-43.268-123.622-113.32v-16.483c-67.992 72.113-109.199 168.95-109.199 276.089 0 224.579 183.372 407.952 407.952 407.952s407.952-183.372 407.952-407.952c2.060-109.199-43.268-208.097-113.32-282.27z" />
<glyph unicode="&#xe904;" glyph-name="OtherTypeGroup" d="M1022.4-8l-16 81.6c-6.4 32-32 57.6-64 64l-22.4 6.4c-12.8 3.2-22.4 12.8-25.6 25.6l-4.8 20.8c-1.6 6.4 1.6 12.8 6.4 17.6 20.8 16 38.4 41.6 49.6 70.4 14.4 3.2 28.8 17.6 32 36.8 4.8 24-4.8 46.4-24 51.2 0 0 0 0 0 0-4.8 62.4-30.4 108.8-110.4 108.8-78.4 0-104-46.4-110.4-108.8 0 0 0 0 0 0-19.2-4.8-28.8-27.2-24-51.2 4.8-19.2 17.6-33.6 32-36.8 11.2-28.8 28.8-52.8 49.6-70.4 4.8-4.8 8-11.2 6.4-17.6l-4.8-20.8c-3.2-12.8-12.8-22.4-25.6-25.6l-22.4-4.8c-32-6.4-57.6-32-64-64l-16-81.6c-3.2-14.4 1.6-28.8 9.6-38.4 9.6-11.2 22.4-17.6 36.8-17.6h267.2c14.4 0 27.2 6.4 36.8 17.6 8 9.6 11.2 22.4 8 36.8zM344 75.2c-6.4 32-32 57.6-64 64l-22.4 4.8c-12.8 3.2-22.4 12.8-25.6 25.6l-4.8 20.8c-1.6 6.4 1.6 12.8 6.4 17.6 20.8 16 38.4 41.6 49.6 70.4 14.4 3.2 28.8 17.6 32 36.8 4.8 24-4.8 46.4-24 51.2 0 0 0 0 0 0-4.8 62.4-30.4 108.8-110.4 108.8-78.4 0-104-46.4-110.4-108.8 0 0 0 0 0 0-19.2-4.8-28.8-27.2-24-51.2 4.8-19.2 17.6-33.6 32-36.8 11.2-28.8 28.8-52.8 49.6-70.4 4.8-4.8 8-11.2 6.4-17.6l-4.8-20.8c-3.2-12.8-12.8-22.4-25.6-25.6l-22.4-4.8c-32-6.4-57.6-32-64-64l-16-81.6c-3.2-14.4 1.6-28.8 9.6-38.4 8-12.8 22.4-19.2 35.2-19.2h267.2c14.4 0 27.2 6.4 36.8 17.6s12.8 25.6 9.6 38.4l-16 83.2zM379.2 424h267.2c14.4 0 27.2 6.4 36.8 17.6s12.8 25.6 9.6 38.4l-16 81.6c-6.4 32-32 57.6-64 64l-22.4 4.8c-12.8 3.2-22.4 12.8-25.6 25.6l-4.8 20.8c-1.6 6.4 1.6 12.8 6.4 17.6 20.8 16 38.4 41.6 49.6 70.4 14.4 3.2 28.8 17.6 32 36.8 4.8 24-4.8 46.4-24 51.2 0 0 0 0 0 0-8 60.8-32 107.2-112 107.2-78.4 0-104-46.4-110.4-108.8 0 0 0 0 0 0-19.2-4.8-28.8-27.2-24-51.2 4.8-19.2 17.6-33.6 32-36.8 11.2-28.8 28.8-52.8 49.6-70.4 4.8-4.8 8-11.2 6.4-17.6l-4.8-19.2c-3.2-12.8-12.8-22.4-25.6-25.6l-22.4-4.8c-32-6.4-57.6-32-64-64l-16-81.6c-3.2-14.4 1.6-28.8 9.6-38.4 8-12.8 22.4-17.6 36.8-17.6zM523.2 344c-12.8 12.8-35.2 12.8-48 0l-115.2-115.2c-12.8-12.8-12.8-35.2 0-48s35.2-12.8 48 0l91.2 91.2 91.2-91.2c6.4-6.4 16-9.6 24-9.6s17.6 3.2 24 9.6c12.8 12.8 12.8 35.2 0 48l-115.2 115.2z" />
<glyph unicode="&#xe905;" glyph-name="NewAXWorkflow_Regular" d="M942.080 30.208v94.208c0 4.096-4.096 12.288-12.288 12.288h-98.304v126.976c0 4.096-4.096 12.288-12.288 12.288h-299.008v106.496h131.072c8.192 0 12.288 4.096 12.288 12.288v126.976c0 4.096-4.096 12.288-12.288 12.288h-282.624c-8.192 0-12.288-4.096-12.288-12.288v-126.976c0-4.096 4.096-12.288 12.288-12.288h131.072v-106.496h-299.008c-8.192 0-12.288-4.096-12.288-12.288v-131.072h-94.208c-8.192 0-12.288-4.096-12.288-12.288v-94.208c0-4.096 4.096-8.192 12.288-8.192h217.088c8.192 0 12.288 4.096 12.288 12.288v94.208c0 4.096-4.096 12.288-12.288 12.288h-98.304v118.784h286.72v-118.784h-94.208c-8.192 0-12.288-4.096-12.288-12.288v-94.208c0-4.096 4.096-12.288 12.288-12.288h217.088c8.192 0 12.288 4.096 12.288 12.288v94.208c0 4.096-4.096 12.288-12.288 12.288h-98.304v118.784h286.72v-118.784h-98.304c-8.192 0-12.288-4.096-12.288-12.288v-94.208c0-4.096 4.096-12.288 12.288-12.288h217.088c8.192 0 12.288 4.096 12.288 12.288v0zM380.928 402.944v106.496h266.24v-106.496h-266.24zM299.008 112.128v-73.728h-192.512v73.728h192.512zM610.304 112.128v-73.728h-192.512v73.728h192.512zM917.504 38.4h-192.512v73.728h192.512v-73.728zM512 656.896l40.96 49.152-176.128 212.992h-81.92l-176.128-208.896 40.96-49.152h352.256zM335.872 837.12l94.208-110.592h-188.416l94.208 110.592zM552.96 710.144l110.592 81.92-110.592 81.92 65.536 45.056 110.592-81.92 110.592 81.92 65.536-49.152-110.592-81.92 110.592-81.92-65.536-49.152-110.592 81.92-110.592-81.92-65.536 53.248z" />
<glyph unicode="&#xe906;" d="M0 960h1024v-1024h-1024v1024z" />
<glyph unicode="&#xe907;" d="M942.080 30.208v94.208c0 4.096-4.096 12.288-12.288 12.288h-98.304v126.976c0 4.096-4.096 12.288-12.288 12.288h-299.008v106.496h131.072c8.192 0 12.288 4.096 12.288 12.288v126.976c0 4.096-4.096 12.288-12.288 12.288h-282.624c-8.192 0-12.288-4.096-12.288-12.288v-126.976c0-4.096 4.096-12.288 12.288-12.288h131.072v-106.496h-299.008c-8.192 0-12.288-4.096-12.288-12.288v-131.072h-94.208c-8.192 0-12.288-4.096-12.288-12.288v-94.208c0-4.096 4.096-8.192 12.288-8.192h217.088c8.192 0 12.288 4.096 12.288 12.288v94.208c0 4.096-4.096 12.288-12.288 12.288h-98.304v118.784h286.72v-118.784h-94.208c-8.192 0-12.288-4.096-12.288-12.288v-94.208c0-4.096 4.096-12.288 12.288-12.288h217.088c8.192 0 12.288 4.096 12.288 12.288v94.208c0 4.096-4.096 12.288-12.288 12.288h-98.304v118.784h286.72v-118.784h-98.304c-8.192 0-12.288-4.096-12.288-12.288v-94.208c0-4.096 4.096-12.288 12.288-12.288h217.088c8.192 0 12.288 4.096 12.288 12.288v0zM380.928 402.944v106.496h266.24v-106.496h-266.24zM299.008 112.128v-73.728h-192.512v73.728h192.512zM610.304 112.128v-73.728h-192.512v73.728h192.512zM917.504 38.4h-192.512v73.728h192.512v-73.728z" />
<glyph unicode="&#xe908;" d="M512 656.896l40.96 49.152-176.128 212.992h-81.92l-176.128-208.896 40.96-49.152h352.256zM335.872 837.12l94.208-110.592h-188.416l94.208 110.592z" />
<glyph unicode="&#xe909;" d="M552.96 710.144l110.592 81.92-110.592 81.92 65.536 45.056 110.592-81.92 110.592 81.92 65.536-49.152-110.592-81.92 110.592-81.92-65.536-49.152-110.592 81.92-110.592-81.92-65.536 53.248z" />
<glyph unicode="&#xe90a;" glyph-name="NewAXForm_normal" d="M167.936 763.392h479.232v-143.36h-479.232v143.36zM782.336 570.88v331.776h-741.376v-806.912h430.080c57.344-73.728 143.36-118.784 245.76-118.784 167.936 0 307.2 135.168 307.2 299.008 0 143.36-102.4 266.24-241.664 294.912v0zM90.112 140.8v712.704h647.168v-278.528c-8.192 0-12.288 0-20.48 0-61.44 0-118.784-16.384-163.84-45.056h-385.024v-61.44h311.296c-36.864-45.056-61.44-98.304-65.536-155.648h-245.76v-65.536h241.664c4.096-36.864 16.384-73.728 32.768-106.496-159.744 0-331.776 0-352.256 0v0zM892.928 235.008h-135.168c0 0 0-102.4 0-143.36h-86.016c0 40.96 0 143.36 0 143.36s-90.112 0-135.168 0v81.92c45.056 0 135.168 0 135.168 0s0 102.4 0 143.36h86.016c0-40.96 0-143.36 0-143.36h135.168v-81.92z" />
<glyph unicode="&#xe90b;" d="M0 960h1024v-1024h-1024v1024z" />
<glyph unicode="&#xe90c;" d="M180.224 808.448h479.232v-143.36h-479.232v143.36z" />
<glyph unicode="&#xe90d;" d="M782.336 570.88v331.776h-741.376v-806.912h430.080c57.344-73.728 143.36-118.784 245.76-118.784 167.936 0 307.2 135.168 307.2 299.008 0 143.36-102.4 266.24-241.664 294.912v0zM90.112 140.8v712.704h647.168v-278.528c-8.192 0-12.288 0-20.48 0-61.44 0-118.784-16.384-163.84-45.056h-385.024v-61.44h311.296c-36.864-45.056-61.44-98.304-65.536-155.648h-245.76v-65.536h241.664c4.096-36.864 16.384-73.728 32.768-106.496-159.744 0-331.776 0-352.256 0v0zM892.928 235.008h-135.168c0 0 0-102.4 0-143.36h-86.016c0 40.96 0 143.36 0 143.36s-90.112 0-135.168 0v81.92c45.056 0 135.168 0 135.168 0s0 102.4 0 143.36h86.016c0-40.96 0-143.36 0-143.36h135.168v-81.92z" />
<glyph unicode="&#xe90e;" glyph-name="Nativeuser" d="M326.279 529.675c13.718-42.631 36.089-82.941 66.691-115.654v-0.211c66.48-63.947 171.37-63.947 237.85 0 33.556 35.667 56.35 79.987 70.279 126.628 1.266 7.176 8.231 10.552 12.663 15.406 24.481 24.481 29.336 65.847 10.974 95.182-2.533 4.432-6.965 8.442-6.754 13.929 0 37.566 0.211 75.133 0 112.699-1.055 45.375-13.929 92.439-45.586 125.995-25.537 27.014-60.782 43.265-97.082 50.229-45.797 8.653-93.916 8.231-139.291-3.166-39.466-9.919-76.399-32.923-99.192-67.113-20.261-29.758-29.124-65.847-30.602-101.303-0.633-38.2-0.211-76.399-0.211-114.81 0.844-7.598-5.698-12.874-8.653-19.205-17.306-31.446-9.708-74.289 18.15-97.082 6.965-4.854 8.231-13.718 10.763-21.527zM831.947 238.008h-63.947c-62.47 0-114.387 44.742-125.573 104.046-39.044-26.17-83.786-40.099-130.427-40.099-47.063 0-92.016 14.14-130.427 39.677-11.397-59.093-63.103-103.835-125.573-103.835h-63.947c0 0-116.076-32.079-192.053-192.053v-46.008c0-35.456 28.702-63.947 63.947-63.947h896.106c35.456 0 63.947 28.702 63.947 63.947v46.008c-75.977 160.185-192.053 192.264-192.053 192.264z" />
<glyph unicode="&#xe90f;" glyph-name="NativeGroup" d="M618.747 731.166c47.301-29.403 80.539-80.539 86.931-138.067 21.733-10.227 46.022-15.341 71.591-14.062 76.704 3.835 139.346 69.034 141.903 145.738 2.557 84.375-65.199 154.687-149.573 154.687-83.096 0-149.573-66.477-150.851-148.295zM494.742 425.628c102.272-16.619 190.482 70.312 173.863 173.863-10.227 62.642-60.085 112.499-122.727 122.727-102.272 16.619-190.482-70.312-173.863-173.863 10.227-62.642 60.085-112.499 122.727-122.727zM582.951 414.122h-127.84c-106.107 0-191.76-85.653-191.76-191.76v-158.522l10.227-3.835c40.909-28.125-25.568-122.727 237.783-122.727 141.903 0 222.442 0 253.124 124.005l10.227 5.114h1.278v155.965c0 104.829-86.931 191.76-193.039 191.76zM832.24 568.809h-126.562c-1.278-51.136-23.011-95.88-57.528-129.119 94.602-28.125 163.635-115.056 163.635-218.607v-48.579c125.283 5.114 196.874 39.63 201.988 42.187l10.227 5.114h1.278v155.965c-1.278 107.386-86.931 193.039-193.039 193.039zM236.504 580.315c37.074-5.114 70.312 3.835 98.437 21.733 7.67 48.579 33.238 89.488 70.312 118.891 0 0 0 0 0 0 5.114 86.931-63.92 158.522-149.573 158.522-88.21 0-158.522-76.704-149.573-166.192 7.67-69.034 62.642-124.005 130.397-132.954zM391.191 439.69c-34.517 33.238-54.971 77.983-57.528 127.84-5.114 0-8.949 1.278-14.062 1.278h-127.84c-106.107 0-191.76-85.653-191.76-191.76v-158.522l10.227-3.835c81.818-25.568 153.408-37.074 216.050-40.909v47.301c1.278 103.551 70.312 190.482 164.914 218.607z" />
<glyph unicode="&#xe910;" glyph-name="MiniTab_Error_icon" d="M873.6 809.6c-96 97.6-225.6 150.4-361.6 150.4s-265.6-52.8-361.6-150.4c-97.6-96-150.4-225.6-150.4-361.6s52.8-265.6 150.4-361.6c96-96 225.6-150.4 361.6-150.4s265.6 52.8 361.6 150.4 150.4 225.6 150.4 361.6c0 136-52.8 265.6-150.4 361.6zM436.8 796.8c8 8 19.2 12.8 30.4 12.8h92.8c11.2 0 22.4-4.8 30.4-12.8s12.8-19.2 11.2-30.4l-16-345.6c-1.6-24-20.8-43.2-44.8-43.2h-57.6c-24 0-43.2 19.2-44.8 43.2l-14.4 345.6c0 11.2 4.8 22.4 12.8 30.4zM513.6 73.6c-54.4 0-94.4 41.6-94.4 99.2s40 99.2 92.8 99.2c54.4 0 92.8-41.6 92.8-99.2 0-59.2-36.8-99.2-91.2-99.2z" />
<glyph unicode="&#xe911;" glyph-name="EditAXFilters" d="M380.928 480.768h356.352v-69.632h-356.352v69.632zM524.288 124.416h-356.352c-20.48 0-36.864 16.384-36.864 36.864v602.112h712.704v-299.008c16.384 8.192 32.768 12.288 49.152 12.288 8.192 0 16.384 0 24.576-4.096v327.68c0 57.344-49.152 106.496-106.496 106.496h-643.072c-57.344 0-106.496-49.152-106.496-106.496v-634.88c0-57.344 49.152-106.496 106.496-106.496h335.872l20.48 65.536zM380.928 620.032h356.352v-69.632h-356.352v69.632zM380.928 267.776h253.952l69.632 69.632h-323.584v-69.632zM237.568 480.768h69.632v-69.632h-69.632v69.632zM237.568 620.032h69.632v-69.632h-69.632v69.632zM237.568 337.408h69.632v-69.632h-69.632v69.632zM970.752 341.504l-53.248 53.248c-16.384 16.384-40.96 16.384-53.248 0l-45.056-45.056 106.496-106.496 45.056 45.056c12.288 12.288 12.288 36.864 0 53.248v0zM606.208 144.896c-4.096 0-4.096-4.096-4.096-8.192l-36.864-126.976c0-4.096 0-12.288 4.096-16.384s8.192-4.096 12.288-4.096c0 0 4.096 0 4.096 0l126.976 36.864c4.096 0 4.096 4.096 8.192 4.096l176.128 172.032-110.592 110.592-180.224-167.936zM622.592 34.304l-16.384 16.384 20.48 73.728 53.248-12.288 12.288-53.248-69.632-24.576z" />
<glyph unicode="&#xe912;" d="M0 960h1024v-1024h-1024v1024z" />
<glyph unicode="&#xe913;" d="M380.928 480.768h356.352v-69.632h-356.352v69.632z" />
<glyph unicode="&#xe914;" d="M524.288 124.416h-356.352c-20.48 0-36.864 16.384-36.864 36.864v602.112h712.704v-299.008c16.384 8.192 32.768 12.288 49.152 12.288 8.192 0 16.384 0 24.576-4.096v327.68c0 57.344-49.152 106.496-106.496 106.496h-643.072c-57.344 0-106.496-49.152-106.496-106.496v-634.88c0-57.344 49.152-106.496 106.496-106.496h335.872l20.48 65.536z" />
<glyph unicode="&#xe915;" d="M380.928 620.032h356.352v-69.632h-356.352v69.632z" />
<glyph unicode="&#xe916;" d="M380.928 267.776h253.952l69.632 69.632h-323.584v-69.632z" />
<glyph unicode="&#xe917;" d="M237.568 480.768h69.632v-69.632h-69.632v69.632z" />
<glyph unicode="&#xe918;" d="M237.568 620.032h69.632v-69.632h-69.632v69.632z" />
<glyph unicode="&#xe919;" d="M237.568 337.408h69.632v-69.632h-69.632v69.632z" />
<glyph unicode="&#xe91a;" d="M970.752 341.504l-53.248 53.248c-16.384 16.384-40.96 16.384-53.248 0l-45.056-45.056 106.496-106.496 45.056 45.056c12.288 12.288 12.288 36.864 0 53.248v0z" />
<glyph unicode="&#xe91b;" d="M606.208 144.896c-4.096 0-4.096-4.096-4.096-8.192l-36.864-126.976c0-4.096 0-12.288 4.096-16.384s8.192-4.096 12.288-4.096c0 0 4.096 0 4.096 0l126.976 36.864c4.096 0 4.096 4.096 8.192 4.096l176.128 172.032-110.592 110.592-180.224-167.936zM622.592 34.304l-16.384 16.384 20.48 73.728 53.248-12.288 12.288-53.248-69.632-24.576z" />
<glyph unicode="&#xe91c;" d="M0 960h1024v-1024h-1024v1024z" />
<glyph unicode="&#xe91d;" d="M471.040 714.24l-65.536 12.288-40.96-180.224 139.264-77.824 32.768 57.344-73.728 40.96c16.384 8.192 36.864 12.288 53.248 12.288 36.864 0 69.632-12.288 94.208-36.864s40.96-57.344 40.96-94.208c0-73.728-57.344-135.168-131.072-135.168-57.344 0-110.592 32.768-126.976 90.112l-61.44-20.48c16.384-53.248 57.344-94.208 102.4-114.688 28.672-12.288 57.344-20.48 90.112-16.384 110.592 4.096 196.608 94.208 192.512 204.8 0 53.248-24.576 102.4-61.44 139.264s-90.112 57.344-143.36 53.248c-20.48 0-45.056-4.096-65.536-12.288l24.576 77.824z" />
<glyph unicode="&#xe91e;" d="M241.664 890.368c-106.496 0-188.416-86.016-188.416-188.416v-524.288c0-106.496 86.016-188.416 188.416-188.416h528.384c106.496 0 188.416 86.016 188.416 188.416v524.288c0 106.496-86.016 188.416-188.416 188.416h-528.384zM118.784 177.664v524.288c0 65.536 53.248 118.784 118.784 118.784h528.384c65.536 0 118.784-53.248 118.784-118.784v-524.288c0-65.536-53.248-118.784-118.784-118.784h-524.288c-65.536-4.096-122.88 49.152-122.88 118.784v0z" />
<glyph unicode="&#xe91f;" glyph-name="ChangeAXDataRegular" d="M471.040 714.24l-65.536 12.288-40.96-180.224 139.264-77.824 32.768 57.344-73.728 40.96c16.384 8.192 36.864 12.288 53.248 12.288 36.864 0 69.632-12.288 94.208-36.864s40.96-57.344 40.96-94.208c0-73.728-57.344-135.168-131.072-135.168-57.344 0-110.592 32.768-126.976 90.112l-61.44-20.48c16.384-53.248 57.344-94.208 102.4-114.688 28.672-12.288 57.344-20.48 90.112-16.384 110.592 4.096 196.608 94.208 192.512 204.8 0 53.248-24.576 102.4-61.44 139.264s-90.112 57.344-143.36 53.248c-20.48 0-45.056-4.096-65.536-12.288l24.576 77.824zM241.664 890.368c-106.496 0-188.416-86.016-188.416-188.416v-524.288c0-106.496 86.016-188.416 188.416-188.416h528.384c106.496 0 188.416 86.016 188.416 188.416v524.288c0 106.496-86.016 188.416-188.416 188.416h-528.384zM118.784 177.664v524.288c0 65.536 53.248 118.784 118.784 118.784h528.384c65.536 0 118.784-53.248 118.784-118.784v-524.288c0-65.536-53.248-118.784-118.784-118.784h-524.288c-65.536-4.096-122.88 49.152-122.88 118.784v0z" />
<glyph unicode="&#xe920;" glyph-name="AXUserprofile_normal" d="M634.88 188.587h-47.787c-51.2 0-92.16 37.547-92.16 88.747v27.307c20.48 23.893 34.133 51.2 44.373 78.507 0 3.413 6.827 6.827 10.24 10.24 17.067 17.067 20.48 44.373 6.827 64.853-3.413 3.413-3.413 6.827-3.413 10.24 0 27.307 0 51.2 0 78.507 0 30.72-10.24 61.44-34.133 85.333-17.067 17.067-44.373 30.72-71.68 34.133-34.133 6.827-68.267 6.827-98.987-3.413-27.307-3.413-54.613-20.48-71.68-44.373-13.653-20.48-20.48-44.373-20.48-68.267 0-27.307 0-51.2 0-78.507 0-6.827-3.413-10.24-6.827-13.653-13.653-20.48-6.827-51.2 13.653-64.853 3.413-3.413 6.827-10.24 6.827-13.653 10.24-27.307 23.893-51.2 40.96-71.68v-30.72c0-47.787-40.96-88.747-92.16-88.747h-44.373c0 0-85.333-20.48-139.947-129.707v-44.373c0-23.893 20.48-44.373 47.787-44.373h645.12c23.893 0 47.787 20.48 47.787 44.373v44.373c-58.027 109.227-139.947 129.707-139.947 129.707v0zM952.32 591.36l37.547 58.027-167.253 238.933h-75.093l-167.253-238.933 37.547-58.027h334.507zM785.067 792.747l88.747-126.293h-177.493l88.747 126.293zM925.013 502.613c-10.24 6.827-27.307 6.827-37.547 0l-71.68-61.44c-10.24-6.827-27.307-6.827-37.547 0l-71.68 61.44c-10.24 10.24-27.307 10.24-37.547 0l-27.307-17.067c-10.24-6.827-10.24-20.48-3.413-30.72l78.507-64.853c10.24-10.24 10.24-23.893 0-30.72l-78.507-64.853c-10.24-6.827-10.24-20.48 3.413-30.72l27.307-17.067c10.24-6.827 27.307-6.827 37.547 0l71.68 61.44c10.24 6.827 27.307 6.827 37.547 0l71.68-61.44c10.24-10.24 27.307-10.24 37.547 0l27.307 17.067c10.24 6.827 10.24 20.48 0 30.72l-78.507 64.853c-10.24 6.827-10.24 23.893 0 30.72l78.507 64.853c10.24 6.827 10.24 20.48 0 30.72l-27.307 17.067z" />
<glyph unicode="&#xe921;" glyph-name="ActiveDirectoryGroup" d="M416 436.8c1.6-4.8 3.2-9.6 6.4-14.4 4.8-11.2 11.2-24 19.2-35.2 3.2-4.8 8-11.2 12.8-16-4.8-3.2-8-8-9.6-11.2l-62.4-19.2c-30.4-8-51.2-100.8-62.4-156.8 56-33.6 123.2-54.4 192-54.4 0 0 0 0 0 0 8 0 16 0 25.6 1.6 60.8 4.8 118.4 22.4 169.6 52.8-11.2 57.6-32 148.8-62.4 156.8l-62.4 19.2c-1.6 4.8-4.8 8-9.6 11.2 4.8 6.4 9.6 11.2 12.8 16 8 11.2 14.4 24 19.2 35.2 1.6 4.8 4.8 9.6 6.4 14.4 6.4 4.8 9.6 12.8 9.6 20.8v19.2c0 4.8-1.6 11.2-4.8 16v27.2c0 48-38.4 86.4-86.4 86.4h-28.8c-48 0-86.4-38.4-86.4-86.4v-27.2c-3.2-4.8-4.8-9.6-4.8-16v-19.2c-3.2-8 0-14.4 6.4-20.8zM496 292.8c0-1.6-1.6-4.8-4.8-4.8 0 0-1.6 0-1.6 0-1.6 0-3.2 1.6-4.8 1.6l-16 20.8c0 1.6-1.6 1.6-1.6 3.2v33.6c0 1.6 1.6 3.2 3.2 4.8s3.2 1.6 4.8 0c4.8-3.2 9.6-4.8 12.8-4.8s4.8-3.2 4.8-4.8v-14.4c0 0 1.6-1.6 1.6-1.6 1.6-1.6 1.6-3.2 1.6-4.8v-28.8zM555.2 313.6c0-1.6 0-1.6-1.6-3.2l-16-20.8c-1.6-1.6-3.2-1.6-4.8-1.6 0 0-1.6 0-1.6 0-1.6 0-3.2 3.2-4.8 4.8l-3.2 28.8c0 1.6 0 3.2 1.6 4.8 0 0 1.6 1.6 1.6 1.6v14.4c0 3.2 1.6 4.8 4.8 4.8 4.8 0 9.6 1.6 12.8 4.8 1.6 1.6 3.2 1.6 4.8 0s3.2-3.2 3.2-4.8l3.2-33.6zM435.2 470.4c0 3.2 3.2 4.8 4.8 4.8h1.6v9.6c0 1.6 1.6 4.8 3.2 4.8 8 3.2 22.4 9.6 38.4 9.6 12.8 0 22.4-4.8 30.4-12.8 9.6-9.6 20.8-16 33.6-16 6.4 0 14.4 1.6 22.4 4.8 1.6 0 3.2 0 4.8 0 0 0 1.6-1.6 1.6-1.6h3.2c3.2 0 4.8-3.2 4.8-4.8v-9.6c0-1.6-1.6-3.2-3.2-4.8l-4.8-3.2v-1.6c-1.6-12.8-9.6-30.4-19.2-46.4-14.4-19.2-25.6-28.8-33.6-28.8h-30.4c-6.4 0-19.2 9.6-33.6 28.8-11.2 16-17.6 33.6-19.2 46.4v1.6l-4.8 3.2c-1.6 1.6-3.2 3.2-3.2 4.8l3.2 11.2zM273.6 686.4c-48 0-86.4-38.4-86.4-86.4v-27.2c-3.2-4.8-4.8-9.6-4.8-16v-19.2c0-8 3.2-16 9.6-20.8 1.6-4.8 3.2-9.6 6.4-14.4 4.8-11.2 11.2-24 19.2-35.2 3.2-4.8 8-11.2 12.8-16-4.8-3.2-8-8-9.6-11.2l-62.4-19.2c-3.2 0-4.8-1.6-6.4-3.2 20.8-88 73.6-164.8 144-216h6.4c3.2 12.8 4.8 25.6 9.6 40 24 97.6 48 115.2 67.2 121.6l46.4 14.4c-8 12.8-14.4 25.6-20.8 38.4-1.6 3.2-3.2 8-4.8 11.2-1.6 1.6-1.6 1.6-3.2 3.2l-38.4 11.2c-1.6 4.8-4.8 8-9.6 11.2 4.8 6.4 9.6 11.2 12.8 16 8 11.2 14.4 24 19.2 35.2 1.6 4.8 4.8 9.6 6.4 14.4 6.4 4.8 9.6 12.8 9.6 20.8v19.2c0 4.8-1.6 11.2-4.8 16v27.2c0 48-38.4 86.4-86.4 86.4l-32-1.6zM270.4 372.8c0-1.6-1.6-4.8-4.8-4.8 0 0-1.6 0-1.6 0-1.6 0-3.2 1.6-4.8 1.6l-16 20.8c0 1.6-1.6 1.6-1.6 3.2v33.6c0 1.6 1.6 3.2 3.2 4.8s3.2 1.6 4.8 0c4.8-3.2 9.6-4.8 12.8-4.8s4.8-3.2 4.8-4.8v-14.4c0 0 1.6-1.6 1.6-1.6 1.6-1.6 1.6-3.2 1.6-4.8v-28.8zM329.6 393.6c0-1.6 0-1.6-1.6-3.2l-16-20.8c0-1.6-1.6-1.6-3.2-1.6 0 0-1.6 0-1.6 0-1.6 0-3.2 3.2-4.8 4.8l-3.2 28.8c0 1.6 0 3.2 1.6 4.8 0 0 1.6 1.6 1.6 1.6v14.4c0 3.2 1.6 4.8 4.8 4.8 4.8 0 9.6 1.6 12.8 4.8 1.6 1.6 3.2 1.6 4.8 0s3.2-3.2 3.2-4.8v-33.6zM347.2 558.4c1.6 0 3.2 0 4.8 0 0 0 1.6-1.6 1.6-1.6h3.2c3.2 0 4.8-3.2 4.8-4.8v-9.6c0-1.6-1.6-3.2-3.2-4.8l-4.8-3.2v-1.6c-1.6-12.8-9.6-30.4-19.2-46.4-14.4-19.2-25.6-28.8-33.6-28.8h-28.8c-6.4 0-19.2 9.6-33.6 28.8-11.2 16-17.6 33.6-19.2 46.4v1.6l-4.8 3.2c-1.6 1.6-3.2 3.2-3.2 4.8v9.6c0 3.2 3.2 4.8 4.8 4.8h1.6v9.6c0 1.6 1.6 4.8 3.2 4.8 8 3.2 22.4 9.6 38.4 9.6 12.8 0 22.4-4.8 30.4-12.8 9.6-9.6 20.8-16 33.6-16 9.6 1.6 16 3.2 24 6.4zM649.6 361.6c19.2-4.8 43.2-24 67.2-120 3.2-14.4 6.4-28.8 9.6-41.6h6.4c22.4 16 43.2 35.2 60.8 56 41.6 46.4 68.8 100.8 83.2 160-1.6 1.6-4.8 3.2-8 3.2l-62.4 19.2c-1.6 4.8-4.8 8-9.6 11.2 4.8 6.4 9.6 11.2 12.8 16 8 11.2 14.4 24 19.2 35.2 1.6 4.8 4.8 9.6 6.4 14.4 6.4 4.8 9.6 12.8 9.6 20.8v19.2c0 4.8-1.6 11.2-4.8 16v27.2c0 48-38.4 86.4-86.4 86.4h-28.8c-48 0-86.4-38.4-86.4-86.4v-27.2c-3.2-4.8-4.8-9.6-4.8-16v-19.2c0-8 3.2-16 9.6-20.8 1.6-4.8 3.2-9.6 6.4-14.4 4.8-11.2 11.2-24 19.2-35.2 3.2-4.8 8-11.2 12.8-16-4.8-3.2-8-8-9.6-11.2l-38.4-11.2c0-1.6-1.6-1.6-3.2-3.2-1.6-3.2-3.2-8-4.8-11.2-4.8-12.8-11.2-25.6-20.8-38.4l44.8-12.8zM720 372.8c0-1.6-1.6-4.8-4.8-4.8 0 0-1.6 0-1.6 0-1.6 0-3.2 1.6-4.8 1.6l-16 20.8c0 1.6-1.6 1.6-1.6 3.2v33.6c0 1.6 1.6 3.2 3.2 4.8s3.2 1.6 4.8 0c4.8-3.2 9.6-4.8 12.8-4.8s4.8-3.2 4.8-4.8v-14.4c0 0 1.6-1.6 1.6-1.6 1.6-1.6 1.6-3.2 1.6-4.8v-28.8zM780.8 393.6c0-1.6 0-1.6-1.6-3.2l-16-20.8c0-1.6-1.6-1.6-3.2-1.6 0 0-1.6 0-1.6 0-1.6 0-3.2 3.2-4.8 4.8l-3.2 28.8c0 1.6 0 3.2 1.6 4.8 0 0 1.6 1.6 1.6 1.6v14.4c0 3.2 1.6 4.8 4.8 4.8 4.8 0 9.6 1.6 12.8 4.8 1.6 1.6 3.2 1.6 4.8 0s3.2-3.2 3.2-4.8l1.6-33.6zM668.8 531.2v1.6l-4.8 3.2c-1.6 1.6-3.2 3.2-3.2 4.8v9.6c0 3.2 3.2 4.8 4.8 4.8h1.6v9.6c0 1.6 1.6 4.8 3.2 4.8 8 3.2 22.4 9.6 38.4 9.6 12.8 0 22.4-4.8 30.4-12.8 9.6-9.6 20.8-16 33.6-16 6.4 0 14.4 1.6 22.4 4.8 1.6 0 3.2 0 4.8 0 0 0 1.6-1.6 1.6-1.6h3.2c3.2 0 4.8-3.2 4.8-4.8v-9.6c0-1.6-1.6-3.2-3.2-4.8l-4.8-3.2v-1.6c-1.6-12.8-9.6-30.4-19.2-46.4-14.4-19.2-25.6-28.8-33.6-28.8h-30.4c-6.4 0-19.2 9.6-33.6 28.8-6.4 17.6-14.4 35.2-16 48zM1022.4 515.2c-4.8 70.4-24 137.6-56 200-24 48-56 89.6-92.8 128l12.8 19.2c6.4 9.6 8 22.4 1.6 33.6-4.8 11.2-16 17.6-27.2 17.6l-144 8c-11.2 0-24-4.8-30.4-14.4s-8-22.4-1.6-33.6l65.6-129.6c4.8-11.2 16-17.6 27.2-17.6s24 4.8 30.4 14.4l6.4 9.6c60.8-67.2 96-153.6 102.4-244.8 14.4-224-155.2-417.6-379.2-432s-417.6 155.2-432 379.2c-9.6 152 64 294.4 195.2 374.4 25.6 14.4 33.6 48 17.6 72-9.6 17.6-28.8 27.2-48 25.6-8 0-16-3.2-24-8-163.2-97.6-257.6-278.4-244.8-468.8 9.6-136 70.4-260.8 172.8-352 102.4-89.6 235.2-134.4 371.2-126.4s260.8 70.4 352 172.8c89.6 104 134.4 236.8 124.8 372.8z" />
<glyph unicode="&#xe922;" glyph-name="UP_arrows" d="M464 48v528h-172.8l230.4 344 233.6-344h-172.8v-528h-118.4z" />
<glyph unicode="&#xe923;" glyph-name="Down_arrow" d="M582.4 920v-528h172.8l-230.4-344-233.6 344h172.8v528h118.4z" />
<glyph unicode="&#xe924;" glyph-name="Annotation_group" d="M74.077 345.853l-13.718-12.874c0 0-41.787 3.377-42.631 1.477l-12.874-28.702c-0.844-1.899 28.491-32.712 28.491-32.712l-0.633-19.205c0 0-31.024-27.858-30.391-29.969l10.763-30.391c0.844-2.11 42.209-2.955 42.209-2.955l12.663-14.562c0 0-2.322-42.843-0.422-43.898l28.28-14.14c1.899-1.055 31.024 28.702 31.024 28.702l18.783-1.266c0 0 27.858-32.712 29.758-32.079l29.124 10.341c2.11 0.633 1.899 43.476 1.899 43.476l13.718 12.663c0 0 41.787-3.377 42.631-1.477l13.085 28.702c0.844 1.899-28.491 32.712-28.491 32.712l0.844 19.205c0 0 31.024 27.858 30.391 29.969l-10.763 30.391c-0.844 2.11-42.209 2.955-42.209 2.955l-12.663 14.562c0 0 2.322 42.843 0.422 43.898l-28.28 14.14c-1.899 1.055-31.024-28.702-31.024-28.702l-18.783 1.266c0 0-27.858 32.712-29.758 32.079l-29.124-10.341c-2.533-0.633-2.322-43.265-2.322-43.265zM182.767 271.776c8.653-24.27-3.377-51.073-26.803-59.304-23.426-8.442-49.596 4.643-58.249 29.124s3.377 51.073 26.803 59.304c23.426 8.231 49.596-4.643 58.249-29.124zM106.79 561.332l-9.919-3.166c0 0-20.261 10.763-21.105 10.13l-13.085-11.185c-0.844-0.844 6.965-22.371 6.965-22.371l-4.643-9.286c0 0-21.949-6.965-21.949-8.020l-1.477-17.306c0-1.266 20.683-10.552 20.683-10.552l3.166-9.919c0 0-10.763-20.472-10.13-21.316l10.974-13.085c0.633-0.844 22.16 7.176 22.16 7.176l9.286-4.643c0 0 6.542-22.16 7.598-22.16l17.095-1.266c1.266 0 10.763 20.894 10.763 20.894l9.708 3.166c0 0 20.261-10.763 21.105-9.919l13.085 11.397c0.844 0.844-6.965 22.371-6.965 22.371l4.643 9.286c0 0 21.949 6.965 21.949 8.020l1.477 17.306c0.211 1.266-20.472 10.552-20.472 10.552l-3.166 9.919c0 0 10.974 20.472 10.13 21.527l-10.974 13.085c-0.633 0.844-22.16-7.176-22.16-7.176l-9.075 4.643c0 0-6.542 22.16-7.809 22.16l-17.095 1.266c-1.266-0.633-10.763-21.527-10.763-21.527zM121.985 528.198c13.718-1.055 23.848-13.085 22.793-27.014s-13.296-24.27-27.014-23.215c-13.718 1.055-23.848 13.085-22.793 27.014 1.266 13.718 13.296 24.27 27.014 23.215zM318.681 162.876c18.994 3.166 19.416 56.772 19.416 56.772s-55.505 56.772-67.535 132.96c-32.501 0-52.762 81.042-20.049 109.533-1.688 29.969-42.209 235.739 162.928 235.739s164.406-205.771 163.139-235.739c32.501-28.491 12.452-109.533-20.049-109.533-12.030-76.188-67.535-132.96-67.535-132.96s0.422-53.606 19.416-56.772c60.782-9.919 288.079-113.332 288.079-226.876h-766.101c0 113.332 227.298 216.956 288.29 226.876zM681.049 144.725c-43.898 28.28-97.293 54.239-141.19 70.068 15.617 23.215 33.134 54.872 44.109 92.439 15.406 13.085 27.858 31.657 35.878 54.661s11.185 48.541 8.653 72.389c-1.899 17.095-6.542 32.923-13.507 46.852 4.432 48.33 7.387 143.301-52.34 212.524-23.215 26.803-52.34 46.219-87.373 57.827 6.331 67.113 39.044 146.045 165.883 146.045 204.927 0 164.406-205.771 163.139-235.739 32.501-28.491 12.452-109.533-20.049-109.533-12.030-76.188-67.535-132.96-67.535-132.96s0.422-53.606 19.416-56.772c60.782-9.919 288.079-113.543 288.079-226.876h-328.811c-4.643 2.744-9.497 5.909-14.351 9.075z" />
<glyph unicode="&#xe925;" glyph-name="Monitor_Checked_out_documents" d="M153.6 960h499.2c8 0 16-3.2 20.8-9.6l219.2-219.2c6.4-4.8 9.6-12.8 9.6-20.8v-747.2c0-16-12.8-28.8-28.8-28.8h-720c-16 0-28.8 12.8-28.8 28.8v968c-1.6 16 12.8 28.8 28.8 28.8v0zM680 860.8v-121.6h121.6l-121.6 121.6zM622.4 902.4h-440v-908.8h660.8v688h-192c-16 0-28.8 12.8-28.8 28.8v192zM696 568l-236.8-216-91.2 83.2-72-65.6 163.2-150.4 308.8 281.6z" />
<glyph unicode="&#xe926;" glyph-name="Monitor_Locked_documents" d="M153.6 960h499.2c8 0 16-3.2 20.8-9.6l219.2-219.2c6.4-4.8 9.6-12.8 9.6-20.8v-747.2c0-16-12.8-28.8-28.8-28.8h-720c-16 0-28.8 12.8-28.8 28.8v968c-1.6 16 12.8 28.8 28.8 28.8v0zM680 860.8v-121.6h121.6l-121.6 121.6zM622.4 902.4h-440v-908.8h660.8v688h-192c-16 0-28.8 12.8-28.8 28.8v192zM672 449.6c-4.8 4.8-11.2 8-19.2 8h-9.6v54.4c0 35.2-12.8 65.6-36.8 89.6-25.6 25.6-54.4 36.8-89.6 36.8s-65.6-12.8-89.6-36.8c-25.6-25.6-36.8-54.4-36.8-89.6v-54.4h-9.6c-8 0-14.4-3.2-19.2-8s-8-11.2-8-19.2v-163.2c0-8 3.2-14.4 8-19.2s11.2-8 19.2-8h273.6c8 0 14.4 3.2 19.2 8s8 11.2 8 19.2v163.2c-1.6 8-4.8 14.4-9.6 19.2zM588.8 457.6h-145.6v54.4c0 20.8 6.4 36.8 20.8 51.2s32 20.8 51.2 20.8c20.8 0 36.8-6.4 51.2-20.8s20.8-32 20.8-51.2v-54.4z" />
<glyph unicode="&#xe927;" glyph-name="Monitor_Queues" d="M153.6 960h499.2c8 0 16-3.2 20.8-9.6l219.2-219.2c6.4-4.8 9.6-12.8 9.6-20.8v-747.2c0-16-12.8-28.8-28.8-28.8h-720c-16 0-28.8 12.8-28.8 28.8v968c-1.6 16 12.8 28.8 28.8 28.8v0zM680 860.8v-121.6h121.6l-121.6 121.6zM622.4 902.4h-440v-908.8h660.8v688h-192c-16 0-28.8 12.8-28.8 28.8v192zM726.4 536c-22.4 36.8-51.2 67.2-89.6 89.6-36.8 22.4-78.4 33.6-123.2 33.6s-84.8-11.2-123.2-33.6c-36.8-22.4-67.2-51.2-89.6-89.6-22.4-36.8-33.6-78.4-33.6-123.2s11.2-84.8 33.6-123.2c22.4-36.8 51.2-67.2 89.6-89.6 36.8-22.4 78.4-33.6 123.2-33.6s84.8 11.2 123.2 33.6c36.8 22.4 67.2 51.2 89.6 89.6 22.4 36.8 33.6 78.4 33.6 123.2-1.6 44.8-11.2 86.4-33.6 123.2zM664 326.4c-16-27.2-36.8-48-62.4-62.4s-56-24-88-24c-32 0-60.8 8-86.4 24-27.2 16-48 36.8-62.4 62.4-16 27.2-24 56-24 86.4 0 32 8 60.8 24 86.4 16 27.2 36.8 48 62.4 62.4 27.2 16 56 24 86.4 24 32 0 60.8-8 86.4-24 27.2-16 48-36.8 62.4-62.4 16-27.2 24-56 24-86.4 1.6-30.4-6.4-59.2-22.4-86.4zM545.6 536h-20.8c-3.2 0-4.8-1.6-8-3.2-1.6-1.6-3.2-4.8-3.2-8v-112h-72c-3.2 0-4.8-1.6-8-3.2-1.6-1.6-3.2-4.8-3.2-8v-20.8c0-3.2 1.6-4.8 3.2-8 1.6-1.6 4.8-3.2 8-3.2h102.4c3.2 0 4.8 1.6 8 3.2 1.6 1.6 3.2 4.8 3.2 8v142.4c0 3.2-1.6 4.8-3.2 8-1.6 4.8-4.8 4.8-6.4 4.8z" />
</font>
</defs>
</svg>
