<?xml version="1.0" standalone="no"?>
<!DOCTYPE svg PUBLIC "-//W3C//DTD SVG 1.1//EN" "http://www.w3.org/Graphics/SVG/1.1/DTD/svg11.dtd" >
<svg xmlns="http://www.w3.org/2000/svg">
<metadata>Generated by IcoMoon</metadata>
<defs>
<font id="icomoon" horiz-adv-x="1024">
<font-face units-per-em="1024" ascent="960" descent="-64" />
<missing-glyph horiz-adv-x="1024" />
<glyph unicode="&#x20;" horiz-adv-x="512" d="" />
<glyph unicode="&#xe600;" glyph-name="B2_NewQuery" d="M512 911.667c-254.49 0-460.8-206.298-460.8-460.8s206.31-460.8 460.8-460.8 460.8 206.285 460.8 460.8c0 254.502-206.31 460.8-460.8 460.8zM785.28 429.171c0-22.080-18.074-40.154-40.205-40.154h-132.186c-22.093 0-40.179-18.074-40.179-40.205v-132.198c0-22.080-18.086-40.166-40.192-40.166h-44.8c-22.106 0-40.166 18.086-40.166 40.166v132.224c-0.013 22.118-18.086 40.192-40.192 40.218l-132.211-0.026c-22.093 0-40.166 18.074-40.166 40.192v44.813c0 22.080 18.074 40.166 40.166 40.179l132.211-0.013c22.106 0 40.179 18.086 40.192 40.192v132.186c0 22.093 18.061 40.166 40.166 40.166h44.826c22.093 0 40.166-18.074 40.166-40.166v-132.198c0-22.118 18.086-40.192 40.179-40.205l132.211 0.013c22.106-0.013 40.179-18.086 40.179-40.179v-44.838z" />
<glyph unicode="&#xe601;" glyph-name="CM1_ContextMenuMain" d="M512.358-0.448c254.49 0 460.8 206.31 460.8 460.8s-206.31 460.8-460.8 460.8-460.8-206.31-460.8-460.8 206.31-460.8 460.8-460.8zM512.358 869.952c225.869 0 409.6-183.744 409.6-409.6s-183.731-409.6-409.6-409.6-409.6 183.744-409.6 409.6 183.744 409.6 409.6 409.6zM745.062 605.824h-466.125l232.704-382.195z" />
<glyph unicode="&#xe602;" glyph-name="E1_BreadcrumbCaret" d="M517.146 457.075l-236.749-236.749v-223.808l0.576-0.563 461.107 461.12-461.107 461.107-0.576-0.563v-223.795z" />
<glyph unicode="&#xe603;" glyph-name="A1_Information" d="M512 911.667c-254.49 0-460.8-206.298-460.8-460.8s206.31-460.8 460.8-460.8 460.8 206.298 460.8 460.8-206.31 460.8-460.8 460.8zM571.136 768.934c18.445 0.077 33.062-7.040 42.445-18.176 9.434-11.098 13.747-25.728 13.747-40.73 0-38.886-30.886-75.686-73.997-75.827-0.358 0-0.742 0-1.101 0-33.805 0-54.899 25.088-55.142 61.594 0.077 31.45 25.357 72.947 74.048 73.139zM626.931 252.378c-64.448-70.374-143.936-112.371-174.182-112.768-0.064 0-0.128 0-0.192 0-10.253 0-20.864 2.714-28.557 11.072-7.731 8.41-11.725 21.235-11.725 39.552 0 14.003 2.317 44.25 7.552 66.112l46.234 199.181c2.24 11.11 3.469 18.931 3.546 22.95-8-2.893-43.162-28.634-60.531-42.138l-6.131-4.595-17.997 48.87 3.52 3.277c65.062 60.173 143.245 108.39 179.11 108.838 10.24 0.166 19.162-5.069 23.962-13.53 4.928-8.333 6.861-19.174 6.861-32.205 0-14.208-2.394-43.878-6.822-63.117l-50.726-206.451c-2.406-9.92-3.392-17.178-3.392-21.76-0.026-2.586 0.333-4.275 0.589-5.069 5.414 0.653 41.421 25.344 64.742 46.797l5.517 5.005 19.238-42.214 2.701-4.134-3.315-3.674z" />
<glyph unicode="&#xe604;" glyph-name="CM10_View_as_PDF" d="M944.117-64h-880.117v809.404l198.763 213.989 681.353 0.607v-1024zM341.905 874.694v-214.549h-198.763v-638.839h721.877v853.388h-523.113zM800 544h-147.692v-224h51.692v92.69h81.231v46.345h-88.615v38.621h96v46.345h7.385zM519.385 544h-88.615v-224h88.615c29.538 0 51.692 7.724 73.846 30.897 29.538 38.621 36.923 123.586 0 162.207-22.154 15.448-44.308 30.897-73.846 30.897v0zM482.462 497.655h29.538c29.538 0 44.308-7.724 51.692-38.621 7.385-15.448 7.385-38.621 0-54.069-7.385-23.172-22.154-30.897-44.308-30.897h-36.923v123.586zM320 544h-96v-224h51.692v77.241h44.308c36.923 0 59.077 15.448 73.846 46.345 7.385 15.448 7.385 38.621 0 54.069-7.385 30.897-36.923 46.345-73.846 46.345v0zM275.692 497.655h29.538c14.769 0 29.538 0 29.538-15.448 7.385-7.724 7.385-23.172 0-30.897-7.385-15.448-22.154-15.448-29.538-15.448h-29.538v61.793z" />
<glyph unicode="&#xe605;" glyph-name="C9_Last_Query" d="M893.152 64l-237.504 238.928c34.128 54.048 54.048 119.472 54.048 189.152 0 194.848-160.704 349.872-349.872 349.872-197.696 2.848-352.72-157.856-352.72-349.856 0-194.848 160.704-349.872 349.872-349.872 66.848 0 126.576 18.496 179.2 46.928l240.352-238.928 116.624 113.776zM72.528 492.096c0 155.024 132.272 287.296 287.296 287.296s287.296-132.272 287.296-287.296-132.272-283.024-290.128-283.024c-160.72 0-284.464 129.424-284.464 283.024zM922.464 894.544l42.432 53.488-237.776 0.032 27.376-230.56 40.336 39.36c174.208-137.936 94.512-374.736-93.84-412.688 290.688 4.56 433.76 375.024 221.472 550.368z" />
<glyph unicode="&#xe606;" glyph-name="C10_Last_Query_a" d="M0 448c0-283.022 228.978-512 512-512s512 228.978 512 512-228.978 512-512 512c-283.022 0-512-228.978-512-512zM146.489 470.756l325.689 219.022v-132.267c0 0 375.467-28.444 375.467-307.2 0 0-46.933 113.778-228.978 135.111-29.867 2.844-75.378 7.111-146.489 7.111v-142.222l-325.689 220.444z" />
<glyph unicode="&#xe607;" glyph-name="C15_Delete_Batch_a" d="M557.511 189.156l46.933 48.356 55.467 55.467-54.044 55.467-46.933 46.933 174.933 174.933 102.4-102.4 1.422 1.422v190.578c0 14.222-11.378 25.6-25.6 25.6h-459.378l-28.444 58.311c-5.689 12.8-22.756 22.756-35.556 22.756h-159.289c-14.222 0-29.867-9.956-36.978-22.756l-28.444-58.311h-38.4c-14.222 0-25.6-11.378-25.6-25.6v-529.067c0-14.222 11.378-25.6 25.6-25.6h615.822l-83.911 83.911zM1024 189.156l-103.822 102.4 103.822 103.822-82.489 82.489-102.4-103.822-103.822 103.822-82.489-82.489 103.822-103.822-103.822-102.4 82.489-82.489 103.822 103.822 102.4-103.822z" />
<glyph unicode="&#xe608;" glyph-name="C12_Last_Query_Result" d="M164.976 870.4v0l-164.976-163.552v-625.776h120.896v66.832h-54.048v492.096h163.552v164.976h275.904v-56.88h65.424v122.304zM725.328 722.496v-782.224h-566.032v618.656l163.552 163.552h402.48zM661.328 657.072h-273.056v-163.552h-163.568v-486.4h436.624v649.952zM922.464 890.48l42.432 53.488-237.776 0.032 27.376-230.56 40.336 39.36c174.208-137.936 94.512-374.736-93.84-412.688 290.688 4.56 433.76 375.024 221.472 550.368z" />
<glyph unicode="&#xe609;" glyph-name="C13_Last_Document" d="M922.464 890.464l42.432 53.488-237.776 0.032 27.376-230.56 40.336 39.36c174.208-137.936 94.512-374.736-93.84-412.688 290.688 4.56 433.76 375.024 221.472 550.368zM658.496 844.8h-469.344v-190.576h-189.152v-718.224h658.496zM132.272 844.8l-132.272-132.272h132.272z" />
<glyph unicode="&#xe60b;" glyph-name="A2_Profile" d="M857.37 250.726c-55.667 24.742-138.266 88.474-260.557 110.374 31.27 33.472 54.95 85.824 79.296 147.853 14.118 35.942 11.686 66.573 11.686 110.195 0 32.23 6.080 83.942-1.92 112.358-26.97 96.051-95.142 122.547-175.002 122.547-79.923 0-148.16-26.624-175.091-122.842-7.936-28.339-1.856-79.936-1.856-112.077 0-43.725-2.381-74.458 11.776-110.464 24.538-62.336 47.859-114.611 79.027-147.955-121.331-22.298-203.302-85.568-258.611-110.221-114.445-51.034-115.008-106.918-115.008-106.918v-94.912l921.69 0.128v94.797c0 0.013-0.538 56.077-115.43 107.136z" />
<glyph unicode="&#xe60c;" glyph-name="A3_Logout" d="M932.198 867.75h-423.667c-34.304 0-50.47-16.179-50.47-50.47v-76.608l116.736-97.754v108.109h291.123v-720.499h116.749v786.752c0 34.304-16.154 50.47-50.47 50.47zM458.061 30.528h116.71v184.32l-116.71-97.741zM406.669 692.646c-7.296 6.106-14.118 8.998-19.853 9.011-10.24 0-17.050-9.28-17.075-26.24v-122.406c0-13.235 0-30.669 0-48.128h-260.851c-26.47 0-48.128-21.658-48.128-48.128l-0.026-55.731c0-26.458 21.645-48.115 48.128-48.115h260.89c0-17.446 0-34.906 0-48.128l-0.013-122.406c0-16.934 6.822-26.227 17.050-26.227 5.747 0 12.544 2.918 19.853 8.998l278.131 232.819c20.275 16.96 20.275 44.8 0 61.773l-278.106 232.909zM458.061 97.728v-77.094c0-34.15 16.179-50.253 50.458-50.253h423.68c34.317 0 50.47 16.102 50.47 50.253v76.262l-116.723 97.318v-107.622h-291.149z" />
<glyph unicode="&#xe60d;" glyph-name="B1_Run" d="M512.742 911.667c-254.502 0-460.8-206.298-460.8-460.8 0-254.49 206.298-460.8 460.8-460.8 254.477 0 460.8 206.31 460.8 460.8 0.013 254.49-206.323 460.8-460.8 460.8zM334.592 213.811v473.395l473.6-237.069-473.6-236.326z" />
<glyph unicode="&#xe60e;" glyph-name="B3_Expand" d="M873.536 571.738h-715.635l357.274-328.538z" />
<glyph unicode="&#xe60f;" glyph-name="B4_Collapse" d="M351.462 790.886v-715.648l328.525 357.274z" />
<glyph unicode="&#xe610;" glyph-name="C1_BatchDropdownMain" d="M898.445 508.467v222.618h-381.056v89.6h-284.608v-0.333l-115.622-115.379v-196.518h-65.613v-413.888h921.6v413.901h-74.701zM852.454 685.082v-176.627h-81.024v176.627h81.024zM659.827 685.082h65.6v-176.627h-80.998v176.627h15.398zM627.277 241.51h-230.4v115.2h230.4v-115.2zM532.8 685.082h65.626v-176.627h-81.024v176.627h15.398zM163.149 658.97h115.622v115.712h192.602v-266.227h-308.224v150.515z" />
<glyph unicode="&#xe611;" glyph-name="C2_UploadNewDoc" d="M147.911 958.578l-147.911-147.911h147.911zM455.111 78.222v227.556h170.667v170.667h113.778v482.133h-526.222v-213.333h-213.333v-809.244h625.778v142.222zM809.244 448h-140.8v-184.889h-184.889v-142.222h184.889v-184.889h140.8v184.889h184.889v142.222h-184.889z" />
<glyph unicode="&#xe612;" glyph-name="C3_UploadNewBatches" d="M610.133 4.267h-345.6v506.311h169.244v169.244h283.022v-167.822h66.844v234.667h-418.133l-167.822-169.244v-640h412.444v1.422zM822.044 443.733h-145.067v-182.044h-180.622v-142.222h180.622v-180.622h145.067v180.622h180.622v142.222h-180.622zM160.711 166.4h-89.6v539.022h177.778v180.622h297.244v-105.244h71.111v177.778h-438.044v-1.422l-179.2-179.2v-682.667h160.711z" />
<glyph unicode="&#xe613;" glyph-name="C4_ManageBatches" d="M945.152 721.83h-506.278l-31.539 64.55c-6.669 13.658-24.576 24.832-39.782 24.832h-174.682c-15.206 0-33.165-11.149-39.898-24.794l-31.949-64.602h-41.818c-15.206 0-27.648-12.442-27.648-27.648v-580.467c0-15.206 12.442-27.648 27.648-27.648h865.946c15.206 0 27.648 12.442 27.648 27.648v580.467c0 15.219-12.442 27.661-27.648 27.661zM688.998 348.237h-354.112v126.259h354.112v-126.259z" />
<glyph unicode="&#xe614;" glyph-name="C5_CreateDropdownMain" d="M512 911.667c-254.49 0-460.8-206.298-460.8-460.8s206.31-460.8 460.8-460.8 460.8 206.298 460.8 460.8-206.31 460.8-460.8 460.8zM785.267 429.184c0-22.093-18.074-40.166-40.192-40.166h-132.186c-22.093 0-40.179-18.074-40.179-40.192v-132.198c0-22.080-18.086-40.166-40.179-40.166h-44.813c-22.106 0-40.166 18.086-40.166 40.166v132.211c-0.013 22.118-18.086 40.192-40.192 40.205l-132.211-0.013c-22.093 0-40.166 18.074-40.166 40.179v44.813c0 22.080 18.074 40.166 40.166 40.179l132.211-0.013c22.106 0 40.179 18.086 40.192 40.192v132.198c0 22.093 18.061 40.166 40.166 40.166h44.826c22.093 0 40.166-18.074 40.166-40.166v-132.198c0-22.118 18.086-40.192 40.179-40.205l132.211 0.013c22.093-0.013 40.166-18.086 40.166-40.179v-44.826z" />
<glyph unicode="&#xe615;" glyph-name="C7_CreateMultiAppSearch" d="M526.157 66.598h-393.856v575.104h192.986v193.165h321.536v-190.669h76.8v267.469h-475.136v-0.576l-192.986-192.589v-728.704h470.656v1.011zM766.080 567.398h-163.123v-206.758h-206.733v-163.085h206.733v-206.746h163.123v206.746h206.72v163.098h-206.72zM299.341 516.326h252.826v-64h-252.826v64zM299.341 380.237h60.826v-64h-60.826v64zM299.341 243.405h60.826v-63.987h-60.826v63.987zM255.821 484.378c0-17.645-14.304-31.949-31.949-31.949s-31.949 14.304-31.949 31.949c0 17.645 14.304 31.949 31.949 31.949s31.949-14.304 31.949-31.949zM255.821 348.454c0-17.645-14.304-31.949-31.949-31.949s-31.949 14.304-31.949 31.949c0 17.645 14.304 31.949 31.949 31.949s31.949-14.304 31.949-31.949zM255.821 211.93c0-17.645-14.304-31.949-31.949-31.949s-31.949 14.304-31.949 31.949c0 17.645 14.304 31.949 31.949 31.949s31.949-14.304 31.949-31.949z" />
<glyph unicode="&#xe616;" glyph-name="C8_CreateReportQuery" d="M814.349 787.994v49.6c0 48.845-30.822 78.029-82.445 78.029s-82.445-29.171-82.445-78.029v-49.613h-55.846v49.613c0 48.845-30.822 78.029-82.458 78.029-51.622 0-82.445-29.171-82.445-78.029v-49.613h-55.859v49.613c0 48.845-30.81 78.029-82.445 78.029-51.622 0-82.445-29.171-82.445-78.029v-49.613h-94.694v-794.726h794.726v794.739h-93.645zM289.075 319.27v-122.099h-109.594v122.099h109.594zM179.494 341.325v133.107h109.594v-133.107h-109.594zM311.155 319.27h530.624v-122.099h-530.624v122.099zM311.155 341.325v133.107h530.624v-133.107h-530.624zM693.606 837.594c0 24.102 11.046 33.869 38.298 33.869s38.298-9.779 38.298-33.869v-132.698c0-24.115-11.046-33.869-38.298-33.869s-38.298 9.766-38.298 33.869v132.698zM472.845 837.594c0 24.102 11.046 33.869 38.298 33.869s38.285-9.779 38.285-33.869v-132.698c0-24.115-11.021-33.869-38.285-33.869-27.251 0-38.298 9.766-38.298 33.869v132.698zM841.779 611.379v-114.893h-530.624v114.893h530.624zM252.083 837.594c0 24.102 11.046 33.869 38.298 33.869s38.298-9.779 38.298-33.869v-132.698c0-24.115-11.046-33.869-38.298-33.869s-38.298 9.766-38.298 33.869v132.698zM289.075 611.379v-114.893h-109.594v114.893h109.594zM179.494 175.142h109.594v-115.648h-109.594v115.648zM311.155 59.482v115.648h530.624v-115.648h-530.624z" />
<glyph unicode="&#xe617;" glyph-name="CM3_Edit" d="M636.646 740.992l-503.654-503.642-80.768-248.563 248.666 80.819 503.59 503.578-167.834 167.808zM248.474 210.394l-27.674 27.648 416.294 416.294 27.648-27.635-416.269-416.307zM693.603 797.978l110.459 110.491 167.827-167.78-110.459-110.491-167.827 167.78z" />
<glyph unicode="&#xe618;" glyph-name="CM4_Delete" d="M512 911.667c-254.502 0-460.8-206.298-460.8-460.8s206.298-460.8 460.8-460.8c254.477 0 460.8 206.298 460.8 460.8s-206.323 460.8-460.8 460.8zM638.72 421.21l119.59-119.603c16.806-16.806 16.806-44.314 0-61.107l-34.086-34.086c-16.806-16.806-44.301-16.806-61.12 0l-119.59 119.59c-16.806 16.806-44.314 16.806-61.107 0l-119.603-119.59c-16.806-16.806-44.314-16.806-61.107 0l-34.086 34.086c-16.806 16.806-16.806 44.301 0 61.107l119.603 119.603c16.806 16.806 16.806 44.314 0 61.107l-119.603 119.603c-16.806 16.806-16.806 44.314 0 61.12l34.074 34.074c16.806 16.806 44.314 16.806 61.12 0l119.603-119.603c16.806-16.806 44.301-16.806 61.107 0l119.616 119.603c16.806 16.806 44.301 16.806 61.094 0l34.099-34.086c16.806-16.806 16.806-44.301 0-61.107l-119.603-119.59c-16.806-16.806-16.806-44.301 0-61.12z" />
<glyph unicode="&#xe619;" glyph-name="CM5_Open" d="M514.47 713.267c-248.269 0-459.123-248.486-459.123-248.486v-9.37c0 0 210.048-250.048 458.33-250.048 248.243-0.013 459.123 248.474 459.123 248.474v9.37c0 0-210.074 250.061-458.33 250.061zM512.883 303.885c-84.006 0-152.102 68.096-152.102 152.102s68.083 152.102 152.102 152.102 152.115-68.096 152.115-152.102-68.096-152.102-152.115-152.102zM582.515 456.909c0-38.457-31.175-69.632-69.632-69.632s-69.632 31.175-69.632 69.632c0 38.457 31.175 69.632 69.632 69.632s69.632-31.175 69.632-69.632z" />
<glyph unicode="&#xe61a;" glyph-name="CM6_Email" d="M972.621 184.294c1.894 5.581 3.162 11.443 3.162 17.626v512.627c0 5.875-1.178 11.443-2.893 16.768l-301.158-257.869 300.89-289.152zM514.138 411.264l119.475 97.203 302.438 258.88c-4.966 1.472-10.112 2.509-15.539 2.509h-812.698c-5.44 0-10.598-1.037-15.578-2.522l302.618-259.008 119.283-97.062zM920.499 146.624c5.197 0 10.138 0.96 14.925 2.33l-303.846 291.84-117.44-95.578-117.261 95.424-303.974-291.699c4.774-1.344 9.715-2.317 14.912-2.317h812.685zM55.411 731.315c-1.715-5.325-2.893-10.893-2.893-16.768v-512.627c0-6.195 1.267-12.058 3.162-17.626l301.043 289.024-301.312 257.997z" />
<glyph unicode="&#xe61b;" glyph-name="CM7_SubmitFullTextJob" d="M310.605 712.192h143.616v143.757h239.309v-515.507l57.139-66.125v638.797h-353.613v-0.422l-143.629-143.347v-494.438l57.178 66.138zM501.798 474.842l-214.323-247.974h160.781v-236.8h107.098v236.8h160.768z" />
<glyph unicode="&#xe61c;" glyph-name="CM8_Export" d="M740.736 220.352h-576v345.51h76.006c39.501 43.738 91.469 80.653 155.162 109.094 4.8 2.138 9.587 4.109 14.374 6.106h-360.742v-575.91h806.4v288.896l-115.2-77.555v-96.141zM971.328 564.326l-345.126 232.294v-139.712c0 0-397.965-30.554-397.965-324.89 0 0 50.342 120.806 242.893 143.693 31.488 3.75 79.36 7.424 155.2 7.424v-151.078l344.998 232.269z" />
<glyph unicode="&#xe61d;" glyph-name="CM9_AdHocSearch" d="M972.8 131.904l-271.654 271.616c25.946 48.499 40.704 103.872 40.704 162.714 0 190.784-154.65 345.434-345.434 345.434-190.771 0-345.434-154.65-345.434-345.434 0-190.746 154.662-345.421 345.434-345.421 58.048 0 112.717 14.374 160.73 39.68l272.115-272.128 143.539 143.539zM166.182 566.221c0 126.95 103.283 230.234 230.234 230.234s230.234-103.283 230.234-230.234c0-126.95-103.27-230.221-230.234-230.221s-230.234 103.27-230.234 230.221z" />
<glyph unicode="&#xe61e;" glyph-name="CM11_CopyLink" d="M939.046 403.43c-0.269 0.448-0.55 0.883-0.806 1.344-8.819 16.218-19.75 30.886-32.448 43.597l-173.491 173.478c-0.704 0.73-1.37 1.331-1.971 1.869-22.106 21.44-48.973 37.158-78.195 45.837 33.677-35.251 55.974-79.283 64.627-127.731 2.573-14.528 3.904-29.376 3.904-44.147 0-5.888-0.256-12.096-0.781-18.944l108.122-108.147c9.395-9.395 16.371-21.248 20.122-34.266 2.176-7.475 3.251-15.245 3.251-23.13 0-8.73-1.331-17.331-3.955-25.587-3.981-12.442-10.496-23.258-19.43-32.179l-70.502-70.502c-15.104-15.104-35.546-23.424-57.574-23.424s-42.47 8.32-57.574 23.424l-173.466 173.466c-6.246 6.246-11.43 13.619-15.373 21.952-5.222 10.944-7.974 23.27-7.974 35.597 0 8.32 1.229 16.55 3.622 24.448 0.23 0.704 0.474 1.395 0.755 2.099l0.422 1.152c1.024 2.906 1.971 5.248 2.97 7.398 0.576 1.254 1.203 2.47 1.856 3.699 1.178 2.227 2.496 4.429 4.045 6.771l0.653 0.973c0.474 0.704 0.922 1.421 1.421 2.099 2.573 3.494 5.056 6.426 7.603 8.947l26.88 26.88c-0.294 3.2-1.024 6.054-2.202 8.474-1.126 2.381-2.496 4.403-4.122 6.029l-67.392 67.392-30.95-30.976c-2.995-2.995-6.003-6.221-9.178-9.894-0.474-0.525-0.922-1.101-1.37-1.651l-0.998-1.229c-2.125-2.522-4.147-5.069-6.106-7.68-0.678-0.87-1.306-1.779-1.946-2.65l-0.371-0.525c-1.92-2.701-3.776-5.427-5.555-8.205l-0.474-0.73c-0.422-0.653-0.845-1.331-1.28-1.971-2.074-3.405-4.070-6.848-5.875-10.227l-0.269-0.499-0.256-0.474c-6.298-11.981-11.354-24.73-15.002-37.952-1.306-4.698-2.33-9.050-3.174-13.248-2.573-12.826-3.878-25.779-3.878-38.656 0-11.328 1.024-22.694 2.97-33.754 6.899-38.746 25.152-73.83 52.723-101.427l173.491-173.466c74.65-74.65 196.096-74.65 270.746 0l70.502 70.502c24.128 24.141 41.344 54.643 49.805 88.243 4.006 15.974 6.054 31.834 6.054 47.142 0 30.246-7.27 60.467-21.005 87.373-0.154 0.307-0.32 0.64-0.448 0.973-0.128 0.256-0.23 0.512-0.371 0.768-0.23 0.486-0.499 0.896-0.781 1.344zM611.2 635.085l-173.466 173.491c-74.65 74.624-196.096 74.624-270.746-0.026l-70.502-70.502c-24.154-24.128-41.344-54.656-49.805-88.23-4.006-15.974-6.054-31.821-6.054-47.155 0-30.246 7.27-60.454 21.005-87.373 0.179-0.294 0.32-0.653 0.448-0.973 0.128-0.256 0.23-0.525 0.371-0.781 0.23-0.422 0.474-0.845 0.755-1.306s0.538-0.87 0.794-1.344c8.845-16.23 19.776-30.874 32.474-43.571l173.478-173.478c0.73-0.755 1.37-1.344 1.997-1.869 22.106-21.427 48.947-37.146 78.17-45.824-33.651 35.251-55.949 79.27-64.576 127.731-2.598 14.477-3.93 29.35-3.93 44.147 0 5.85 0.256 12.045 0.781 18.944l-108.122 108.147c-9.395 9.395-16.371 21.248-20.122 34.278-2.176 7.475-3.277 15.219-3.277 23.104 0 8.73 1.344 17.344 3.981 25.6 3.981 12.454 10.496 23.27 19.43 32.179l70.502 70.502c31.219 31.219 83.955 31.219 115.149 0l173.466-173.466c6.246-6.246 11.43-13.619 15.373-21.952 5.197-10.944 7.974-23.245 7.974-35.597 0-8.32-1.229-16.55-3.622-24.448-0.23-0.73-0.474-1.421-0.755-2.15l-0.422-1.101c-1.024-2.906-1.971-5.248-2.97-7.398-0.576-1.254-1.229-2.47-1.869-3.699-1.178-2.253-2.522-4.531-4.019-6.771l-0.602-0.896c-0.474-0.755-0.947-1.472-1.472-2.176-2.573-3.494-5.056-6.426-7.578-8.947l-26.906-26.88c0.294-3.2 1.024-6.054 2.202-8.499 1.126-2.381 2.496-4.403 4.122-6.003l67.392-67.392 30.95 30.976c2.944 2.944 5.952 6.195 9.203 9.894 0.474 0.55 0.947 1.126 1.395 1.702l0.947 1.152c2.125 2.547 4.147 5.094 6.106 7.718 0.806 1.037 1.549 2.086 2.304 3.162 1.971 2.701 3.802 5.427 5.606 8.205l0.576 0.909 1.126 1.805c2.099 3.379 4.070 6.81 5.901 10.227l0.256 0.461 0.269 0.512c6.298 11.942 11.354 24.704 15.027 37.939 1.254 4.557 2.278 8.922 3.149 13.274 2.573 12.8 3.878 25.754 3.878 38.63 0 11.354-1.024 22.707-2.97 33.766-6.95 38.682-25.178 73.754-52.774 101.35z" />
<glyph unicode="&#xe61f;" glyph-name="CM12_AddtoFav" d="M682.598 352.998l291.008 191.987-359.181 0.218-102.042 366.682-102.054-366.682-359.13-0.218 292.070-192.512-110.579-362.381 280.397 238.81 293.184-238.797z" />
<glyph unicode="&#xe620;" glyph-name="CM13_Print" d="M773.632 708.109v179.93h-521.766v-179.93h-200.115v-473.6h200.115v-209.254h371.059v0.435l150.707 150.426v58.406h199.718v473.587h-199.718zM909.325 644.518v-58.944h-115.942v58.944h115.942zM311.846 828.058h401.805v-119.949h-401.805v119.949zM562.944 85.235h-251.098v355.443h-59.981v-142.118h-71.539v217.69h667.597v-217.69h-74.291v142.118h-59.994v-204.595h-150.694v-150.848z" />
<glyph unicode="&#xe621;" glyph-name="CM15_Index" d="M300.57 844.467h673.485v-148.006h-673.485v148.006zM300.57 529.741h673.485v-148.006h-673.485v148.006zM300.57 213.312h673.485v-148.006h-673.485v148.006zM199.898 770.586c0-40.797-33.072-73.869-73.869-73.869s-73.869 33.072-73.869 73.869c0 40.797 33.072 73.869 73.869 73.869s73.869-33.072 73.869-73.869zM199.898 456.256c0-40.797-33.072-73.869-73.869-73.869s-73.869 33.072-73.869 73.869c0 40.797 33.072 73.869 73.869 73.869s73.869-33.072 73.869-73.869zM199.898 140.531c0-40.797-33.072-73.869-73.869-73.869s-73.869 33.072-73.869 73.869c0 40.797 33.072 73.869 73.869 73.869s73.869-33.072 73.869-73.869z" />
<glyph unicode="&#xe622;" glyph-name="Cm17_Scan" d="M857.6 517.99h-84.506v-64h55.974l79.731-88.73v-244.070h-793.6v244.070l79.731 88.73h56.384v64h-84.915l-115.2-128.205v-332.595h921.6v332.595zM251.315 375.936h521.779v479.411h-371.072v-0.435l-150.707-150.413v-328.563zM311.296 644.531h150.707v150.848h251.098v-359.462h-401.805v208.614z" />
<glyph unicode="&#xe623;" glyph-name="D1_Ascending" d="M318.029 379.878h413.542l-206.464 189.862z" />
<glyph unicode="&#xe624;" glyph-name="D2_Descending" d="M731.571 509.862h-413.555l206.477-189.862z" />
<glyph unicode="&#xe625;" glyph-name="D3_Query_Public" d="M378.278 754.573v-0.486l-162.816-162.483v-614.784h211.597v64.806h-146.803v485.184h162.816v162.97h271.283v-209.843h64.794v274.637zM863.309 470.323c-0.934 0-1.562 0.051-2.534 0.026-0.755 0-1.702-0.064-2.47-0.064-74.598 0-135.066-60.467-135.066-135.091 0 0 0-46.938 0-81.357h-255.488v-279.437h372.070v279.437h-48.998c0 34.304 0 81.357 0 81.357 0 37.21 30.285 67.494 67.469 67.494 1.062 0 3.315 0.064 3.315 0.064s1.126-0.064 1.702-0.064c37.21 0 67.469-30.259 67.469-67.494 0 0 0-14.259 0-32.666h22.592v-8.589l-22.592-21.261c0-6.49 0-12.89 0-18.842h67.622c0 34.099 0 81.357 0 81.357 0 74.637-60.493 135.13-135.091 135.13zM214.016 908.173v-0.486l-162.816-162.496v-614.771h119.616v64.806h-54.822v485.171h162.816v162.982h271.283v-56.256h64.794v121.050z" />
<glyph unicode="&#xe626;" glyph-name="D4_Query_Private" d="M380.966 754.573v-0.486l-162.816-162.483v-614.784h339.584v64.806h-274.79v485.171h162.816v162.982h271.283v-184.256h64.794v249.050zM216.704 908.173v-0.486l-162.816-162.496v-614.771h119.616v64.806h-54.822v485.171h162.816v162.982h271.283v-56.256h64.794v121.050zM923.418 251.93v80.845c0 74.086-60.838 134.157-135.923 134.157-0.922 0-1.613 0.064-2.522 0.038-0.768 0-1.754-0.051-2.496-0.051-75.085 0-135.923-60.058-135.923-134.157v-80.832h-48.102v-277.53h374.349v277.53h-49.382zM714.547 332.762c0 36.954 30.464 67.021 67.917 67.021 1.075 0 3.315 0.064 3.315 0.064s1.139-0.051 1.715-0.051c37.466 0 67.93-30.080 67.93-67.021v-80.845h-140.877v80.832z" />
<glyph unicode="&#xe627;" glyph-name="D5_MAS_Public" d="M314.944 72.998h-201.843v575.104h192.986v193.165h321.536v-254.669h76.8v331.469h-475.136v-0.576l-192.986-192.589v-728.704h278.643v1.011zM828.006 584c-1.114 0-1.869 0.077-3.008 0.038-0.883 0-2.010-0.064-2.931-0.064-88.41 0-160.090-71.68-160.090-160.128 0 0 0-55.642 0-96.435h-302.81v-331.213h440.998v331.213h-58.074c0 40.653 0 96.435 0 96.435 0 44.096 35.904 80 79.974 80 1.267 0 3.93 0.077 3.93 0.077s1.331-0.077 2.022-0.077c44.096 0 79.974-35.866 79.974-80 0 0 0-16.896 0-38.707h26.778v-10.189l-26.778-25.203c0-7.693 0-15.27 0-22.323h80.141c0 40.422 0 96.435 0 96.435-0.013 88.435-71.706 160.141-160.128 160.141zM280.141 522.726h252.826v-64h-252.826v64zM280.141 386.637h60.826v-64h-60.826v64zM280.141 249.805h60.826v-63.974h-60.826v63.974zM236.621 490.778c0-17.645-14.304-31.949-31.949-31.949s-31.949 14.304-31.949 31.949c0 17.645 14.304 31.949 31.949 31.949s31.949-14.304 31.949-31.949zM236.621 354.854c0-17.645-14.304-31.949-31.949-31.949s-31.949 14.304-31.949 31.949c0 17.645 14.304 31.949 31.949 31.949s31.949-14.304 31.949-31.949zM236.621 218.33c0-17.645-14.304-31.949-31.949-31.949s-31.949 14.304-31.949 31.949c0 17.645 14.304 31.949 31.949 31.949s31.949-14.304 31.949-31.949z" />
<glyph unicode="&#xe628;" glyph-name="D6_MAS_Private" d="M506.944 72.998h-381.043v575.104h192.986v193.165h321.536v-241.869h76.8v318.669h-475.136v-0.576l-192.986-192.589v-728.704h457.843v1.011zM928.614 327.386v96.474c0 88.422-71.693 160.115-160.128 160.115-1.114 0-1.907 0.064-2.982 0.026-0.883 0.013-2.035-0.051-2.931-0.051-88.448 0-160.102-71.693-160.102-160.115v-96.461h-56.691v-331.187h441.011v331.2h-58.176zM682.547 423.846c0 44.096 35.917 79.987 80.013 79.987 1.267 0 3.917 0.064 3.917 0.064s1.331-0.051 2.010-0.051c44.109 0 80.013-35.891 80.013-79.987v-96.474h-165.952v96.461zM292.941 522.726h252.826v-64h-252.826v64zM292.941 386.637h201.626v-64h-201.626v64zM292.941 249.805h188.826v-63.974h-188.826v63.974zM249.421 490.778c0-17.645-14.304-31.949-31.949-31.949s-31.949 14.304-31.949 31.949c0 17.645 14.304 31.949 31.949 31.949s31.949-14.304 31.949-31.949zM249.421 354.854c0-17.645-14.304-31.949-31.949-31.949s-31.949 14.304-31.949 31.949c0 17.645 14.304 31.949 31.949 31.949s31.949-14.304 31.949-31.949zM249.421 218.33c0-17.645-14.304-31.949-31.949-31.949s-31.949 14.304-31.949 31.949c0 17.645 14.304 31.949 31.949 31.949s31.949-14.304 31.949-31.949z" />
<glyph unicode="&#xe629;" glyph-name="dropdown" d="M524.8 229.786l-199.846 346.138h399.693z" />
<glyph unicode="&#xe62a;" glyph-name="E2_Customize" d="M969.651 553.306c-1.741 0-49.024 0-105.088 0-56.077 0-69.517 32.448-29.875 72.090 39.654 39.654 73.101 73.088 74.33 74.317 1.229 1.242 1.229 3.226 0 4.467-1.229 1.229-33.126 33.126-70.899 70.899-37.76 37.747-69.67 69.645-70.886 70.886-1.229 1.229-3.238 1.229-4.467 0-1.229-1.242-34.65-34.675-74.304-74.317s-72.077-26.214-72.077 29.85c0 56.077 0 103.347 0 105.088s-1.421 3.149-3.149 3.149c-1.754 0-46.848 0-100.262 0s-98.522 0-100.262 0c-1.728 0-3.149-1.408-3.149-3.149s0-49.011 0-105.088c0-56.064-32.422-69.491-72.077-29.85s-73.088 73.075-74.317 74.317c-1.229 1.229-3.238 1.229-4.467 0-1.216-1.242-33.126-33.139-70.886-70.886-37.76-37.773-69.67-69.67-70.899-70.899-1.229-1.242-1.229-3.226 0-4.467 1.229-1.229 34.662-34.662 74.317-74.317 39.654-39.642 26.214-72.090-29.85-72.090-56.077 0-103.373 0-105.101 0-1.741 0-3.149-1.408-3.149-3.149 0-1.728 0-46.848 0-100.25 0-53.414 0-98.534 0-100.262 0-1.741 1.408-3.149 3.149-3.149 1.728 0 49.024 0 105.075 0 56.077 0 69.504-32.435 29.875-72.077-39.654-39.654-73.088-73.075-74.317-74.304-1.229-1.242-1.229-3.226 0-4.467 1.229-1.229 33.126-33.126 70.886-70.899 37.773-37.76 69.67-69.658 70.899-70.899 1.229-1.229 3.226-1.229 4.454 0 1.229 1.242 34.675 34.675 74.317 74.317 39.667 39.654 72.090 26.214 72.090-29.85 0-56.077 0-103.36 0-105.101s1.421-3.149 3.149-3.149c1.741 0 46.848 0 100.262 0s98.509 0 100.262 0c1.728 0 3.149 1.408 3.149 3.149s0 49.024 0 105.101c0 56.064 32.422 69.504 72.077 29.862s73.088-73.075 74.317-74.317c1.229-1.229 3.238-1.229 4.467 0 1.216 1.242 33.126 33.139 70.886 70.899s69.658 69.658 70.886 70.886c1.229 1.242 1.229 3.226 0 4.467-1.229 1.229-34.65 34.65-74.304 74.304-39.642 39.642-26.202 72.077 29.862 72.077s103.334 0 105.075 0 3.149 1.408 3.149 3.136c0 1.728 0 46.848 0 100.262 0 53.402 0 98.522 0 100.25 0 1.741-1.408 3.162-3.149 3.162zM519.859 298.675c-85.286 0-154.419 69.12-154.419 154.406 0 85.274 69.133 154.419 154.419 154.419 85.274 0 154.419-69.146 154.419-154.419 0.013-85.286-69.146-154.406-154.419-154.406z" />
<glyph unicode="&#xe62b;" glyph-name="E3_CheckboxEmpty" d="M757.158 821.837h-487.936c-91.827 0-166.528-74.714-166.528-166.541v-424.986c0-91.827 74.701-166.554 166.528-166.554h487.936c91.84 0 166.554 74.726 166.554 166.554v424.973c0 91.84-74.714 166.554-166.554 166.554zM829.286 230.298c0-39.821-32.294-72.115-72.128-72.115h-487.936c-39.821 0-72.090 32.282-72.090 72.115v424.986c0 39.846 32.269 72.115 72.090 72.115h487.936c39.821 0 72.128-32.269 72.128-72.115v-424.986z" />
<glyph unicode="&#xe62c;" glyph-name="E4_Checkbox_Checked" d="M757.158 821.837h-487.936c-91.827 0-166.528-74.714-166.528-166.541v-424.986c0-91.827 74.701-166.554 166.528-166.554h487.936c91.84 0 166.554 74.726 166.554 166.554v424.973c0 91.84-74.714 166.554-166.554 166.554zM829.286 230.298c0-39.821-32.294-72.115-72.128-72.115h-487.936c-39.821 0-72.090 32.282-72.090 72.115v424.986c0 39.846 32.269 72.115 72.090 72.115h487.936c39.821 0 72.128-32.269 72.128-72.115v-424.986zM310.208 404.928c-6.746 6.771-6.733 17.856 0.026 24.602l43.456 43.469c6.758 6.771 17.843 6.771 24.602 0.013l70.566-70.4c6.771-6.771 17.83-6.746 24.589 0.026l193.408 193.843c6.746 6.758 17.856 6.797 24.627 0.051l43.238-42.931c6.771-6.746 6.797-17.805 0.051-24.563l-234.534-235.085c-6.758-6.771-20.096-12.326-29.658-12.326h-20.275c-9.562 0-22.912 5.581-29.645 12.326l-110.451 110.976z" />
<glyph unicode="&#xe62d;" glyph-name="E5_Checkmark" d="M303.808 398.528c-6.746 6.771-6.733 17.856 0.026 24.602l43.456 43.469c6.758 6.771 17.843 6.771 24.602 0.013l70.566-70.4c6.771-6.771 17.83-6.746 24.589 0.026l193.408 193.843c6.746 6.758 17.843 6.797 24.627 0.051l43.238-42.931c6.784-6.746 6.81-17.805 0.064-24.563l-234.547-235.085c-6.758-6.771-20.096-12.326-29.658-12.326h-20.275c-9.562 0-22.912 5.581-29.645 12.326l-110.451 110.976z" />
<glyph unicode="&#xe62e;" glyph-name="E6_Doc_LatestRev" d="M880.356 960v-1024h-688.356v809.244l197.689 214.756h490.667zM800.711 873.244h-329.956v-214.756h-199.111v-640h527.644v854.756zM595.911 355.556l-211.911 184.889v-368.356l211.911 183.467zM624.356 179.2h66.844v364.089h-66.844c0 0 0-364.089 0-364.089z" />
<glyph unicode="&#xe62f;" glyph-name="E7_Doc_CheckedOut" d="M204.8 614.4c27.2 191.2 269.6 293.6 423.2 133.6l-51.2-51.2 239.2-7.2-7.2 239.2-51.2-51.2c-194.4 194.4-573.6 20-552.8-263.2zM819.2 184.8v436.8h-593.6v-686.4h341.6c112 0 252 147.2 252 249.6zM293.6 0v549.6h460.8v-358.4c0-102.4-129.6-64.8-129.6-64.8s37.6-126.4-58.4-126.4c-57.6 0-78.4 0-272.8 0z" />
<glyph unicode="&#xe630;" glyph-name="E8_Doc_PrevRev" d="M880 960v-1024h-688v809.6l198.4 214.4h489.6zM800 873.6h-329.6v-214.4h-198.4v-640h528v854.4zM393.6 390.4l278.4 214.4v-428.8l-278.4 214.4z" />
<glyph unicode="&#xe631;" glyph-name="E9_Doc_RetHold" d="M440.889 18.489c25.6-35.556 75.378-59.733 113.778-82.489h-554.667v809.244l197.689 214.756h489.244v-364.089c-19.911-1.422-51.2-5.689-79.644-17.067v294.4h-329.956v-214.756h-197.689v-640h361.244zM715.378-56.889c170.667 0 308.622 136.533 308.622 308.622s-136.533 307.2-308.622 307.2-308.622-136.533-308.622-308.622 137.956-307.2 308.622-307.2v0zM715.378 35.556c-119.467 0-216.178 95.289-216.178 214.756s96.711 214.756 216.178 214.756 214.756-96.711 214.756-214.756-99.556-214.756-214.756-214.756v0zM678.4 381.156v-143.644l11.378-11.378 112.356-96.711 48.356 55.467-112.356 96.711 11.378-29.867v129.422h-71.111z" />
<glyph unicode="&#xe632;" glyph-name="E9_Document_retention_hold" d="M384 138.643v-74.643h-384v708.228l175.621 187.24v0.531h432.379v-448h-69.888v373.357h-292.563v-187.731h-175.621v-558.983h314.073zM920.32 442.317h-381.863l-83.295-226.253v-272.614h549.83v274.022l-84.672 224.845zM528.389 237.85l52.792 163.891 298.518-0.128 53.942-163.763h-405.252zM898.506 263.219l-7.437 22.477h-321.833l-7.238-22.477h336.508zM867.978 355.84l-6.762 20.48-262.755 0.102-6.636-20.582h276.153zM584.312 332.467l-7.538-23.398h306.609l-7.715 23.398h-291.356z" />
<glyph unicode="&#xe633;" glyph-name="F1_ExpandPanel" d="M883.2-10.278v921.946l-755.942-460.288z" />
<glyph unicode="&#xe634;" glyph-name="F2_CollapsePanel" d="M127.245 911.667v-921.958l755.955 460.288z" />
<glyph unicode="&#xe635;" glyph-name="F3_PrevPage" d="M883.2-10.278v921.946l-755.942-460.288z" />
<glyph unicode="&#xe636;" glyph-name="F4_NextPage" d="M127.245 911.667v-921.958l755.955 460.288z" />
<glyph unicode="&#xe637;" glyph-name="G1_Close" d="M505.958-16.282c254.502 0 460.8 206.31 460.8 460.8s-206.298 460.8-460.8 460.8c-254.477 0-460.8-206.31-460.8-460.8s206.323-460.8 460.8-460.8zM505.958 854.118c225.869 0 409.6-183.744 409.6-409.6s-183.731-409.6-409.6-409.6-409.6 183.731-409.6 409.6 183.757 409.6 409.6 409.6zM404.736 469.107c13.53-13.53 13.53-35.661 0-49.216l-96.269-96.269c-13.53-13.542-13.53-35.661 0-49.203l27.443-27.456c13.53-13.53 35.661-13.53 49.19 0l96.269 96.269c13.542 13.53 35.674 13.53 49.203 0l96.269-96.269c13.555-13.53 35.674-13.53 49.216 0l27.443 27.469c13.542 13.53 13.542 35.648 0 49.19l-96.269 96.269c-13.53 13.568-13.53 35.686 0 49.216l96.269 96.269c13.53 13.53 13.53 35.661 0 49.19l-27.456 27.443c-13.542 13.53-35.648 13.53-49.216 0l-96.269-96.282c-13.542-13.53-35.661-13.53-49.203 0l-96.269 96.282c-13.53 13.53-35.661 13.53-49.203 0l-27.43-27.43c-13.542-13.542-13.542-35.674 0-49.203l96.282-96.269z" />
<glyph unicode="&#xe638;" glyph-name="G4_MoveUp" d="M51.2 450.867c0-254.49 206.298-460.8 460.8-460.8s460.8 206.31 460.8 460.8-206.298 460.8-460.8 460.8-460.8-206.323-460.8-460.8zM738.906 315.162h-462.042l231.36 378.867 230.682-378.867z" />
<glyph unicode="&#xe639;" glyph-name="G5_MoveDown" d="M972.8 450.867c0 254.49-206.298 460.8-460.8 460.8s-460.8-206.31-460.8-460.8 206.298-460.8 460.8-460.8 460.8 206.31 460.8 460.8zM285.094 586.56h462.042l-231.36-378.854-230.682 378.854z" />
<glyph unicode="&#xe63a;" glyph-name="H1_Range" d="M51.2 873.267v-844.659h920.55v844.659h-920.55zM894.95 105.395h-766.95v550.272h766.95v-550.272zM582.17 380.608h89.587v62.656h124.493v51.187h-124.493v65.126h-89.587v-65.126h-356.339v-51.187h356.339zM415.77 357.504h-89.6v-64.614h-100.326v-51.226h100.326v-63.078h89.6v63.078h380.48v51.226h-380.48z" />
<glyph unicode="&#xe63b;" glyph-name="H2_List" d="M818.867 911.667h-614.067c-84.838 0-153.6-68.762-153.6-153.6v-614.771c0-84.826 68.762-153.6 153.6-153.6h614.067c84.826 0 153.6 68.774 153.6 153.6v614.771c0 84.838-68.774 153.6-153.6 153.6zM857.267 681.574v-127.962h-562.022v127.962h562.022zM271.782 382.131v-125.274h-105.382v125.274h105.382zM166.4 405.594v124.544h105.382v-124.544h-105.382zM295.245 382.131h562.022v-125.274h-562.022v125.274zM295.245 405.594v124.544h562.022v-124.544h-562.022zM271.782 681.574v-127.962h-105.382v127.962h105.382zM166.4 143.283v90.112h105.382v-128.512h-66.982c-21.171 0-38.4 17.229-38.4 38.4zM818.867 104.883h-523.622v128.512h562.022v-90.112c0-21.171-17.229-38.4-38.4-38.4z" />
<glyph unicode="&#xe63c;" glyph-name="H3_Date" d="M814.144 785.114v49.459c0 48.704-30.72 77.786-82.202 77.786s-82.202-29.082-82.202-77.786v-49.459h-55.693v49.459c0 48.704-30.72 77.786-82.176 77.786-51.469 0-82.202-29.082-82.202-77.786v-49.459h-55.693v49.459c0 48.704-30.72 77.786-82.202 77.786-51.469 0-82.202-29.082-82.202-77.786v-49.459h-94.374v-792.294h792.294v792.294h-93.35zM693.773 834.573c0 24.038 10.995 33.779 38.17 33.779s38.17-9.741 38.17-33.779v-132.301c0-24.026-10.995-33.779-38.17-33.779s-38.17 9.754-38.17 33.779v132.301zM473.677 834.573c0 24.038 11.008 33.779 38.182 33.779 27.162 0 38.182-9.741 38.182-33.779v-132.301c0-24.026-11.021-33.779-38.182-33.779-27.174 0-38.182 9.754-38.182 33.779v132.301zM253.594 834.573c0 24.038 11.008 33.779 38.182 33.779 27.162 0 38.17-9.741 38.17-33.779v-132.301c0-24.026-11.008-33.779-38.17-33.779-27.174 0-38.182 9.754-38.182 33.779v132.301zM841.472 58.842h-660.237v550.208h660.237v-550.208zM513.216 270.605c0 41.971-28.301 65.203-77.798 79.36v1.011c44.467 15.155 68.698 39.424 68.698 77.312 0 38.413-37.901 68.736-103.078 68.736-30.822 0-63.181-4.032-90.458-16.691l7.565-55.578c20.736 10.112 42.97 16.666 65.728 16.666 35.366 0 44.966-12.122 44.966-30.298 0-26.304-25.28-37.926-68.224-40.934v-55.603c62.157-3.533 82.381-16.678 82.381-48.512 0-23.245-22.234-40.934-56.589-40.934-28.326 0-50.547 4.032-77.325 14.157l-7.59-55.603c21.722-8.602 50.522-14.144 77.837-14.144 75.277 0 133.888 34.88 133.888 101.056zM628.877 409.587v-234.982h67.725v317.35h-33.856l-97.050-47.987 7.578-55.59z" />
<glyph unicode="&#xe63d;" glyph-name="H6_RadioButton" d="M521.677 747.213c-171.52 0-310.579-139.046-310.579-310.566 0-171.546 139.046-310.566 310.579-310.566 171.507 0 310.566 139.021 310.566 310.566 0 171.52-139.059 310.566-310.566 310.566zM521.677 203.699c-128.435 0-232.934 104.499-232.934 232.947 0 128.435 104.499 232.922 232.934 232.922 128.422 0 232.922-104.486 232.922-232.922 0-128.448-104.499-232.947-232.922-232.947z" />
<glyph unicode="&#xe63e;" glyph-name="H7_RadioButton_Selected" d="M521.677 747.213c-171.52 0-310.579-139.046-310.579-310.566 0-171.546 139.046-310.566 310.579-310.566 171.507 0 310.566 139.021 310.566 310.566 0 171.52-139.059 310.566-310.566 310.566zM521.677 203.699c-128.435 0-232.934 104.499-232.934 232.947 0 128.435 104.499 232.922 232.934 232.922 128.422 0 232.922-104.486 232.922-232.922 0-128.448-104.499-232.947-232.922-232.947zM682.714 439.514c0-85.764-69.526-155.29-155.29-155.29s-155.29 69.526-155.29 155.29c0 85.764 69.526 155.29 155.29 155.29s155.29-69.526 155.29-155.29z" />
<glyph unicode="&#xe641;" glyph-name="E11_File_for_Retention" d="M440.889 18.489c25.6-35.556 75.378-59.733 113.778-82.489h-554.667v809.244l197.689 214.756h489.244v-364.089c-19.911-1.422-51.2-5.689-79.644-17.067v294.4h-329.956v-214.756h-197.689v-640h361.244zM715.378-56.889c170.667 0 308.622 136.533 308.622 308.622s-136.533 307.2-308.622 307.2-308.622-136.533-308.622-308.622 137.956-307.2 308.622-307.2v0zM715.378 35.556c-119.467 0-216.178 95.289-216.178 214.756s96.711 214.756 216.178 214.756 214.756-96.711 214.756-214.756-99.556-214.756-214.756-214.756v0zM678.4 381.156v-143.644l11.378-11.378 112.356-96.711 48.356 55.467-112.356 96.711 11.378-29.867v129.422h-71.111z" />
<glyph unicode="&#xe642;" glyph-name="E12_File_for_Retention_a" d="M440.889 18.489c25.6-35.556 75.378-59.733 113.778-82.489h-554.667v809.244l197.689 214.756h489.244v-364.089c-19.911-1.422-51.2-5.689-79.644-17.067v294.4h-329.956v-214.756h-197.689v-640h361.244zM715.378-56.889c170.667 0 308.622 136.533 308.622 308.622s-136.533 307.2-308.622 307.2-308.622-136.533-308.622-308.622 137.956-307.2 308.622-307.2v0zM715.378 35.556c-119.467 0-216.178 95.289-216.178 214.756s96.711 214.756 216.178 214.756 214.756-96.711 214.756-214.756-99.556-214.756-214.756-214.756v0zM678.4 381.156v-143.644l11.378-11.378 112.356-96.711 48.356 55.467-112.356 96.711 11.378-29.867v129.422h-71.111zM147.911 435.2c-5.689 5.689-5.689 12.8 0 18.489l32.711 32.711c5.689 5.689 12.8 5.689 18.489 0l52.622-52.622c5.689-5.689 12.8-5.689 18.489 0l145.067 146.489c5.689 5.689 12.8 5.689 18.489 0l32.711-32.711c5.689-5.689 5.689-12.8 0-18.489l-174.933-177.778c-5.689-5.689-15.644-9.956-22.756-9.956h-15.644c-7.111 0-17.067 4.267-22.756 9.956l-82.489 83.911z" />
<glyph unicode="&#xe643;" glyph-name="E13_Document_normal" d="M880.356 960v-1024h-688.356v809.244l197.689 214.756h490.667zM800.711 873.244h-329.956v-214.756h-199.111v-640h527.644v854.756z" />
<glyph unicode="&#xe644;" glyph-name="E14_Refresh" d="M128 529.067c31.289 0 61.156 18.489 72.533 48.356 51.2 122.311 170.667 207.644 311.467 207.644 76.8 0 147.911-27.022 204.8-69.689l-44.089-7.111c-15.644-2.844-27.022-14.222-28.444-29.867s5.689-29.867 19.911-36.978l244.622-109.511c11.378-4.267 22.756-4.267 32.711 2.844 9.956 5.689 15.644 17.067 15.644 28.444l1.422 268.8c0 15.644-9.956 28.444-24.178 32.711s-29.867-1.422-38.4-14.222l-34.133-51.2c-91.022 91.022-214.756 145.067-349.867 145.067-206.222 0-382.578-125.156-457.956-304.356-9.956-24.178-8.533-52.622 7.111-75.378 14.222-22.756 39.822-35.556 66.844-35.556zM962.844 329.956c-14.222 22.756-39.822 35.556-66.844 35.556-31.289 0-61.156-18.489-72.533-48.356-51.2-122.311-170.667-207.644-311.467-207.644-76.8 0-147.911 27.022-204.8 69.689l44.089 7.111c15.644 2.844 27.022 14.222 28.444 29.867s-5.689 29.867-19.911 36.978l-243.2 109.511c-11.378 4.267-22.756 4.267-32.711-2.844-9.956-5.689-15.644-17.067-15.644-28.444l-1.422-268.8c0-15.644 9.956-28.444 24.178-32.711s29.867 1.422 38.4 14.222l34.133 51.2c89.6-91.022 213.333-145.067 348.444-145.067 206.222 0 382.578 125.156 457.956 304.356 9.956 24.178 8.533 52.622-7.111 75.378z" />
<glyph unicode="&#xe645;" glyph-name="H8_Choose_for_Search" d="M972.8 132.267l-271.644 271.644c25.6 48.356 41.244 103.822 41.244 162.133 0 190.578-155.022 345.6-345.6 345.6s-345.6-155.022-345.6-345.6 155.022-345.6 345.6-345.6c56.889 0 112.356 14.222 160.711 39.822l273.067-273.067 142.222 145.067zM166.4 566.044c0 126.578 103.822 230.4 230.4 230.4s230.4-103.822 230.4-230.4-103.822-230.4-230.4-230.4-230.4 103.822-230.4 230.4z" />
<glyph unicode="&#xe646;" glyph-name="H9_Filed_to_Display" d="M-2.844 372.622c-15.644 15.644-15.644 42.667 0 58.311l102.4 100.978c15.644 15.644 42.667 15.644 58.311 0l166.4-166.4c15.644-15.644 42.667-15.644 58.311 0l455.111 456.533c15.644 15.644 42.667 15.644 58.311 0l102.4-100.978c15.644-15.644 15.644-41.244 0-58.311l-553.244-551.822c-15.644-15.644-46.933-28.444-69.689-28.444h-48.356c-22.756 0-54.044 12.8-69.689 28.444l-260.267 261.689z" />
<glyph unicode="&#xe647;" glyph-name="H10_CAQ_Add" d="M517.689 443.733l-263.111-263.111v-248.889h1.422l512 512-512 512h-1.422v-248.889z" />
<glyph unicode="&#xe648;" glyph-name="H11_CAQ_Add_All" d="M339.911 443.733l-263.111-263.111v-248.889h1.422l512 512-512 512h-1.422v-248.889zM716.8 448l-263.111-263.111v-248.889h1.422l512 512-512 512h-1.422v-248.889z" />
<glyph unicode="&#xe649;" glyph-name="H12_CAQ_Remove" d="M768 706.844v248.889h-1.422l-512-512 512-512h1.422v248.889l-263.111 263.111z" />
<glyph unicode="&#xe64a;" glyph-name="H13_Not_Selected_Field" d="M2.844 867.556l91.022 91.022 930.133-930.133-91.022-91.022-930.133 930.133zM932.978 958.578l91.022-91.022-930.133-930.133-91.022 91.022 930.133 930.133z" />
<glyph unicode="&#xe64b;" glyph-name="E10_Document_retention_hold_and_previous_revision" d="M384 137.6v-73.6h-384v707.2l176 188.8h432v-448h-70.4v374.4h-291.2v-188.8h-176v-560h313.6zM160 480l256 192v-384l-256 192zM921.6 441.6h-384l-83.2-224v-272h550.4v272l-83.2 224zM528 236.8l51.2 163.2h297.6l54.4-163.2h-403.2zM899.2 262.4l-6.4 22.4h-323.2l-6.4-22.4h336zM867.2 355.2l-6.4 19.2h-262.4l-6.4-19.2h275.2zM585.6 332.8l-9.6-22.4h307.2l-6.4 22.4h-291.2z" />
<glyph unicode="&#xe64c;" glyph-name="E15_Document_Retention" d="M440.889 18.489c25.6-35.556 75.378-59.733 113.778-82.489h-554.667v809.244l197.689 214.756h489.244v-364.089c-19.911-1.422-51.2-5.689-79.644-17.067v294.4h-329.956v-214.756h-197.689v-640h361.244zM715.378-56.889c170.667 0 308.622 136.533 308.622 308.622s-136.533 307.2-308.622 307.2-308.622-136.533-308.622-308.622 137.956-307.2 308.622-307.2v0zM715.378 35.556c-119.467 0-216.178 95.289-216.178 214.756s96.711 214.756 216.178 214.756 214.756-96.711 214.756-214.756-99.556-214.756-214.756-214.756v0zM678.4 381.156v-143.644l11.378-11.378 112.356-96.711 48.356 55.467-112.356 96.711 11.378-29.867v129.422h-71.111z" />
<glyph unicode="&#xe64d;" glyph-name="E16_document_retention_previousrevision" d="M440.889 18.489c25.6-35.556 75.378-59.733 113.778-82.489h-554.667v809.244l197.689 214.756h489.244v-364.089c-19.911-1.422-51.2-5.689-79.644-17.067v294.4h-329.956v-214.756h-197.689v-640h361.244zM715.378-56.889c170.667 0 308.622 136.533 308.622 308.622s-136.533 307.2-308.622 307.2-308.622-136.533-308.622-308.622 137.956-307.2 308.622-307.2v0zM715.378 35.556c-119.467 0-216.178 95.289-216.178 214.756s96.711 214.756 216.178 214.756 214.756-96.711 214.756-214.756-99.556-214.756-214.756-214.756v0zM678.4 381.156v-143.644l11.378-11.378 112.356-96.711 48.356 55.467-112.356 96.711 11.378-29.867v129.422h-71.111zM376.889 625.778v-389.689l-256 194.844z" />
<glyph unicode="&#xe64e;" glyph-name="IMC1_AppendBatch" d="M631.467 160.711h-71.111v253.156h140.8v140.8h182.044v119.467c0 14.222-11.378 27.022-27.022 27.022h-484.978l-29.867 61.156c-5.689 12.8-24.178 24.178-38.4 24.178h-167.822c-14.222 0-31.289-11.378-38.4-24.178l-31.289-62.578h-38.4c-14.222 0-27.022-11.378-27.022-27.022v-556.089c0-14.222 11.378-27.022 27.022-27.022h674.133v69.689h-69.689zM883.2 483.556h-110.933v-140.8h-140.8v-110.933h140.8v-142.222h110.933v142.222h140.8v110.933h-140.8z" />
</font>
</defs>
</svg>
