<?xml version="1.0" standalone="no"?>
<!DOCTYPE svg PUBLIC "-//W3C//DTD SVG 1.1//EN" "http://www.w3.org/Graphics/SVG/1.1/DTD/svg11.dtd" >
<svg xmlns="http://www.w3.org/2000/svg">
<metadata>Generated by IcoMoon</metadata>
<defs>
<font id="icomoon" horiz-adv-x="1024">
<font-face units-per-em="1024" ascent="960" descent="-64" />
<missing-glyph horiz-adv-x="1024" />
<glyph unicode="&#x20;" horiz-adv-x="512" d="" />
<glyph unicode="&#xe600;" glyph-name="V133_Action_Arrow" d="M496-4.976l524.8 453.68-524.8 452.272v-276.976h-496v-352h496z" />
<glyph unicode="&#xe601;" glyph-name="V134_Redaction_a" d="M540.444 857.6l-105.244 102.4-312.889-304.356 105.244-102.4 298.667 290.133c7.111 14.222 14.222 14.222 14.222 14.222zM712.533 475.022l-21.333 19.911-28.444-27.022-21.333 19.911 73.956 102.4 98.133 150.756-98.133 95.289-31.289 27.022-45.511-44.089-7.111 7.111c-14.222 14.222-38.4 19.911-59.733 7.111l-7.111-7.111-312.889-290.133c-14.222-19.911-14.222-44.089 0-65.422l59.733-58.311c21.333-19.911 45.511-19.911 66.844 0l238.933 231.822 59.733 58.311c21.333 19.911 21.333 44.089 0 65.422l-14.222 19.911 14.222 14.222 28.444-27.022 31.289-31.289-31.289-51.2-88.178-129.422-45.511-71.111 45.511-44.089-31.289-31.289 31.289-31.289 88.178-85.333 81.067-78.222 106.667 85.333-180.622 167.822z" />
<glyph unicode="&#xe602;" glyph-name="V1_23_OpenThumbnail" d="M102.4 960h296.96v-296.96h-296.96v296.96zM399.36 601.6h-296.96v-296.96h296.96v296.96zM337.92 540.16v-177.493h-174.080v177.493h174.080zM399.36 236.373h-296.96v-300.373h296.96v300.373zM337.92 174.933v-177.493h-174.080v177.493h174.080zM747.52 355.84l-194.56 245.76h389.12l-194.56-245.76z" />
<glyph unicode="&#xe603;" glyph-name="V2_24_CloseThumbnail" d="M102.4 960h296.96v-296.96h-296.96v296.96zM399.36 601.6h-296.96v-296.96h296.96v296.96zM337.92 540.16v-177.493h-174.080v177.493h174.080zM399.36 236.373h-296.96v-300.373h296.96v300.373zM337.92 174.933v-177.493h-174.080v177.493h174.080zM870.4 444.587l-245.76-194.56v389.12l245.76-194.56z" />
<glyph unicode="&#xe604;" glyph-name="V3_ZoomIn" d="M642.317 581.222v330.445h-260.698v-330.458h-330.419v-260.659h330.419v-330.419h260.698v330.419h330.406v260.672z" />
<glyph unicode="&#xe605;" glyph-name="V4_ZoomOut" d="M51.2 583.501h921.498v-260.646h-921.498v260.646z" />
<glyph unicode="&#xe606;" glyph-name="V5_01_FittoView" d="M908 844v-802.4h-792v802.4h792zM1024 960h-1024v-1024h1024v1024zM593.6 448c0-40.8-34.4-75.2-75.2-75.2s-75.2 34.4-75.2 75.2 34.4 75.2 75.2 75.2c34.4 0 75.2-34.4 75.2-75.2v0zM457.6 571.2c13.6 7.2 34.4 13.6 54.4 13.6 20.8 0 40.8-7.2 54.4-13.6v102.4h95.2l-149.6 160-146.4-160h92v-102.4zM379.2 448c0 20.8 7.2 40.8 13.6 54.4h-102.4v96l-160.8-150.4 160.8-146.4v95.2h102.4c-7.2 10.4-13.6 30.4-13.6 51.2v0zM566.4 324.8c-20.8-7.2-34.4-13.6-54.4-13.6-20.8 0-40.8 7.2-54.4 13.6v-108.8h-96l146.4-153.6 147.2 153.6h-88.8v108.8zM894.4 448l-153.6 146.4v-95.2h-109.6c7.2-20.8 13.6-34.4 13.6-54.4 0-20.8-7.2-40.8-13.6-54.4h109.6v-95.2l153.6 152.8z" />
<glyph unicode="&#xe607;" glyph-name="V6_02_FittoHeight" d="M512 836.8l-167.2-187.2h105.6v-402.4h-105.6l167.2-184 174.4 184h-106.4v402.4h105.6l-173.6 187.2zM908 850.4v-802.4h-792v802.4h792zM1024 960h-1024v-1024h1024v1024z" />
<glyph unicode="&#xe608;" glyph-name="V115_Placeholder_HTML" horiz-adv-x="922" d="M226.304 155.819h23.893v-53.931h54.272v53.931h23.893v-133.803h-23.893v59.392h-54.272v-59.392h-23.893v133.803zM389.12 136.021h-38.571v20.139h101.035v-20.139h-38.571v-114.005h-23.893v114.005zM473.771 155.819h26.965l23.893-65.536c1.365-4.096 3.072-8.533 4.437-12.971s2.731-8.875 4.437-13.312h0.683c1.365 4.437 2.731 8.875 4.096 13.312s2.731 8.875 4.096 12.971l23.211 65.536h26.965v-133.803h-21.845v61.099c0 3.072 0 6.485 0.341 10.24s0.341 7.509 0.683 11.264c0.341 3.755 0.683 7.509 1.024 10.923 0.341 3.755 0.683 6.827 1.024 10.24h-0.683l-10.923-31.061-21.845-60.075h-13.995l-22.187 60.075-10.581 31.061h-0.683c0.341-3.072 0.683-6.485 1.024-10.24s0.683-7.168 1.024-10.923c0.341-3.755 0.683-7.509 0.683-11.264 0.341-3.755 0.341-7.168 0.341-10.24v-61.099h-21.504v133.803zM626.347 155.819h23.893v-114.005h55.637v-20.139h-79.531v134.144zM630.101 667.136c0-2.731 5.803-4.096 7.168 0-2.731 0 0 6.144-1.365 6.144 0 1.365-1.365 0-1.365 3.413 0 0 2.731 0 4.096 0 0 0-2.731 0-2.731 3.413 0 0-2.731-3.413-2.731 0s0 1.365-1.365 2.731l-1.365 4.096c1.365 0 1.365 0 2.731 0 0 0 4.096 1.365 2.731 1.365-1.365 1.365 0 4.096-4.096 2.731-1.365 0-2.731-2.731-5.803-2.731-1.365 1.365-4.437-4.096-1.365-4.096 0-2.731 2.731-4.437 2.731-8.533 0-3.072-3.072-7.168 2.731-8.533zM610.304 679.765c0 5.803-4.096 4.096-5.803 8.533-1.365 0-1.365 1.365-4.096 1.365-1.365 0-2.731 0-2.731-1.365-2.731-1.365-1.365 1.365-4.096 1.365 0 2.731-1.365 4.437-4.096 4.437-1.365-4.437-5.803-7.168-4.096-12.971 1.365 0 1.365-0.683 0-2.048 1.365 0 14.336 0.683 14.336 0.683s2.731-3.413 2.731 0c1.365 0 2.731-3.755 7.168-2.389-2.389-2.389 4.779 2.389 0.683 2.389zM460.8 866.133c-136.533 0-247.467-110.933-247.467-247.467s110.933-247.467 247.467-247.467 247.467 110.933 247.467 247.467-110.933 247.467-247.467 247.467zM357.035 598.869c0 1.365-2.731 5.803-4.096 5.803 1.365 2.731-7.168 7.168-9.899 7.168 0 0-1.365 0-1.365 1.365-2.731 0-2.731 4.096-7.168 4.096-2.731 0-7.168 2.731-11.264 2.731-1.365 1.365-7.168 1.365-7.168 4.096-2.731 0-4.096 5.803-4.096 7.168s-1.365 11.264-5.803 11.264c0 1.365-4.096 5.803-5.803 5.803 0 0-1.365 4.437-2.731 4.437 0 1.365-4.096 7.168-5.803 4.096 0-1.365 2.731-4.096 2.731-5.803 0 0 4.096-5.803 4.096-7.168 7.168-12.629-5.803-4.096-5.803 1.365-1.365 0-4.096 7.168-4.096 8.533 0 0-4.096 7.168-2.731 7.168 0 4.096-1.365 5.803-5.803 5.803l-4.096 5.803c0 1.365-2.731 7.168-4.096 7.168 0 2.731-1.365 7.168 0 11.264 0 5.803 0 14.336-5.803 18.432 25.6 15.701 39.936 36.864 58.709 53.931l3.072 1.365c0-1.365 0-1.365 0-4.096 0 0 0.683-2.389 0.683-5.803 1.365 0 4.096 3.413 4.096 0 0 0-1.365 0-2.731 0 0-3.413-1.365-0.683-4.096-0.683 0 0-7.168 3.072-4.096-1.024 0 0 0-0.683 2.731-0.683s5.803-0.683 7.168-0.683c1.365 0 2.731 0 5.803 0 0 0 4.096 1.707 1.365 1.707 0 1.365 0 1.707-1.365 1.707 0 0 4.096 0 5.803 0 1.365 0 0 0.683 1.365 3.413s2.731-0.341 4.096 2.389c1.365 0 2.731-1.707 2.731-3.072 1.365 0 7.168-9.899 7.168-3.072 1.365 0 2.731-4.437 2.731-7.168 4.096 0 4.096 2.731 4.096 5.803v1.707c0 0 3.413-1.365 3.413 0v0h3.413c0 0 0-5.803 0-7.168s-4.096-1.365-4.096-2.731c-4.096-2.731 4.437-4.096 5.803-7.168h-4.096c-1.365 0-7.168-1.365-8.533 0 2.731 0 2.731 2.731 4.096 5.803-2.731 0-5.803 0-5.803-2.731-1.365-4.096-2.731 0-4.096-2.731l-5.803-1.365c-5.803 0-4.096-5.803-4.096-9.899 1.365-1.365 5.803-4.096 5.803-7.168 4.096 0 5.803-1.365 11.264-1.365 0 0 1.365-1.365 2.731-1.365 0-2.731 2.731-1.365 4.096-1.365 0 2.731 4.096-2.731 4.096-4.096 0 0 0-2.731 1.365-4.096 1.365 0 5.803 0 5.803 1.365-1.365 0-1.365 1.365-1.365 2.731-1.365 1.365-1.365 4.096 0 4.096 0-1.365 7.168 1.365 2.731 2.731 0 1.365 1.024 5.803-0.341 7.168 0 1.365 0 0-3.413 1.365 3.413 0 0 4.437 0 7.851h3.755c2.731 0 7.168-3.413 8.533-0.341 4.096-1.365 0-3.072 5.803-1.707 0 0 2.389-5.803 5.803-5.803v-1.365c0-1.365 0-0.683 0-0.683h4.096c1.365 0 2.731 2.389 2.731 4.096 1.365 0 2.731-7.168 5.803-7.168 1.365-1.365 4.096-5.12 4.096-6.485 0 0 1.365-0.341 1.365-3.755 0 0 2.731 6.827 2.731 0 0 0 2.731-1.024 4.096-2.389-1.365 0 0-1.024-1.365-1.024 0 0-4.096 0-5.803 0-1.365-6.827-11.264-1.024-17.067-2.389-2.731 0-8.533-6.827-8.533-11.264 2.731 0 5.803 3.072 8.533 4.437 2.389 0 2.731 1.024 4.437 1.365-2.389-0.683 0-3.072 1.365-5.461 1.365-1.365 2.731-2.731 4.096-2.731 0-1.365-2.731 0-2.731-1.365 0 0-2.731 0.341-2.731-1.024-5.803 0-2.731-1.707-1.365 1.707h2.731v0.683c-3.413 0-5.12-1.365-6.485-1.365 0 0-1.707-2.731-3.072-2.731 0-1.365-1.707-5.803-4.437-7.168l-4.437-2.731c-1.365-1.365-1.365-1.365-2.731-4.437 0 0-1.365-4.096-1.365-5.803-1.365-1.365-2.731-7.168-5.803-7.168-1.365-4.096-5.803-2.731-5.803-8.533 1.365-1.365 1.365-7.168 1.365-8.533s1.365-4.096-1.365-4.096l-1.365 2.731c0 1.365-1.365 5.803-2.731 7.168s-2.731 0-5.803 0c0 1.365-5.803 1.365-8.533 1.365 0-1.365 1.365-1.365 1.365-2.731-1.365 0-2.731-1.365-4.437-1.365-2.731 0-2.048 2.731-5.12 1.365-4.096 0-7.851-4.096-7.851-9.899v-9.899c0-2.731 0.683-4.096 0.683-7.168 1.365 0 3.755-4.096 6.827-4.096 0-1.365-1.707-1.365 2.731-1.365 0 0 1.365 1.707 1.365 3.072-2.731 0 0 4.437 1.365 4.437 0-3.413 2.731 0 2.731 0l2.731 1.024c0 2.731 2.731 0 0-1.707-1.365 0-1.707-3.072-3.072-3.072 0-1.365-1.707-4.437-1.707-5.803 0-2.731 3.413-4.437 0-4.437 3.413 0 6.827 0 6.827 0s0 0.341 0 1.707c3.413 0 0.341-7.168 3.413-7.168 0-2.731 1.707-4.096 1.707-5.803 0 0 0.341 0 0.341-0.341-0.683-0.341-1.024-1.365-1.707-2.731-2.048 0.683-7.509-0.683-7.509 3.755zM423.936 692.736c0-1.365 0-1.365-2.731-1.365-0.341 1.365 1.365 1.365 2.731 1.365zM409.6 699.563c-0.341 0-1.024 0-1.365 0 0.341 0 1.024 0 1.365 0zM399.701 618.667c0 0-2.048 0.683-2.048 2.048 1.365 0 1.707-2.048 5.12-2.048 0 1.365 0 0 0 1.365l4.096-1.365c-4.437 0-4.437 0-7.168 0zM384 625.835c-1.365 0-4.096-0.341-5.803 3.072 1.365 0 2.731 0 4.096 0 4.096 0 4.096-3.072 7.168-3.072 0-1.365 4.096-2.731 0-4.096-1.024 0-4.096 1.365-5.461 4.096zM389.803 618.667h-1.365c-1.707 0 0 0 1.365 0zM386.731 617.301c-1.365 0-2.731 0-1.365 1.365 1.365 0 1.365-1.365 1.365-1.365zM375.467 628.565c0-1.365-4.096-2.731-2.731 0 1.365-1.365 1.365 0 2.731 0zM399.701 446.635c-0.341-0.341-1.024-0.683-1.365-1.024 0 0.341 0.341 1.024 1.365 1.024 0 1.365 2.731 0 0 0zM455.68 539.136l-5.12-5.803v-7.168c0-1.365 1.024-8.533-0.683-8.533 0-2.731-1.024-4.096-2.389-7.168-1.365-1.365-6.827-4.096-8.192-5.803-1.365 0-2.731-1.365-4.096-1.365l-2.731-2.731c0-1.365 0-7.168-1.365-8.533 0 0-1.365 0-1.365-2.731-1.365 0 0-1.365-2.731-1.365-1.365 0-4.096-2.731-4.096-4.096 0-2.731 0.683-4.437-2.389-5.803 0 0-3.755-1.365-3.755-2.731v-4.096c-3.413 0-4.437-1.365-4.437-1.365-4.096 0-2.389 0-5.803-1.365v-2.731c0-2.731-1.707 0-4.779-1.365l1.365-2.731c0-2.731-1.024-2.731-2.389-5.803l-1.024-2.731c0-1.365 0-2.731 0-5.803 0 0 0 0 0-1.024-3.413-0.683-1.707-1.365-1.707-3.072-1.365 0-5.12-5.803-1.707-5.803 0-1.365 0-1.365 0-2.731-6.827 1.365-10.24 2.731-16.043 4.096 0 5.803-0.341 21.163 1.024 21.163l1.024 5.803c0 2.731 0 5.803 0 8.533 0 1.365 1.707 4.096 1.707 7.168 2.731 1.365 1.365 21.163 4.437 21.163 0 9.899 1.365 15.701 0 22.869l-4.096 5.803c-4.096 0-8.533 7.168-8.533 11.264 0 1.365-1.365 2.731-1.365 5.803 1.365 0-7.168 11.264-7.168 11.264-4.096 1.365 0 5.803 0 9.899-2.731 1.365 0 11.264 1.365 11.264 0 1.365 0.341 1.365 1.707 2.731 0-2.731 5.12 1.365 1.707 1.365 0 1.365 0 7.168 0 7.168 0 0.341-0.341 1.024-0.683 1.365 2.048 0 4.096 0.341 4.096 1.365 2.731 0 2.731-1.365 2.731-4.096 7.168 0 2.731 5.803 5.803 5.803 0 1.365 0 1.707 1.365 0.341 1.365 0 1.365 1.707 2.731 1.707h1.365c0 0 0 0 1.365 0s2.731-1.365 4.096 0c1.365 0 1.365-6.827 5.803-6.827 1.365 0 5.803 0 7.168 0 0 0 1.365 1.024 1.365-0.683 1.365 0 1.365-1.024 1.365-1.024s1.365 0.341 1.365-1.365c0-1.365 2.731-1.365 2.731-2.731 1.365-1.365 0-0.683 2.731-0.683 1.365 0 2.731-0.683 5.803-0.683h2.731c0-3.413 0-0.683 1.365-2.048 2.731-2.731-0.341-1.707 1.024-4.779 1.365 0 1.024-4.779 1.024-6.144v-4.096c0 0 3.755-3.413 3.755 0 1.365 0 2.731-3.413 4.096-3.413 0 0 1.365-3.413 1.365 0 2.731 0 1.365-3.755 1.365-5.12 2.731 0 2.731 1.707 5.803 1.707 1.365 0 2.731-3.413 2.731 0 2.731-3.413 5.12-3.072 6.827-4.437 5.12-2.731 4.779-12.971 0.341-17.067zM518.827 723.797v-2.731c0 0 2.389 1.365 3.755 1.365 0-1.365-3.072-2.731-0.341-4.096 1.365 0 2.731-1.365 1.365-2.731 2.731 0 3.413-2.731 3.413-5.803 1.365 0 2.048 0 2.048 1.365v-1.365c-3.413-2.731-7.168-2.389-9.899-2.389 0 0-0.341 0-3.755 0s0 0 0 3.413c0 0 2.389 0 3.755 0 0 3.413 0 4.437-4.096 4.437 0 1.365 0.683 1.365-0.683 4.437-0.341 4.096 1.024 0 4.437 4.096zM516.096 704c0 0-1.365-1.365-1.365 0h1.365zM507.904 713.216c-1.365 0-1.365 1.024-1.365 1.024 0 3.413 1.365 0 1.365 0 1.365 0 4.096 2.048 2.731-1.024 0-4.096-1.365-6.827-5.803-6.827-1.365 1.365 0 2.731 0 4.096-2.731 0.341 3.072 1.365 3.072 2.731zM477.184 742.571c0.683 0.341 1.707 1.707-0.341 1.707 0 0 1.024 1.365 4.437 1.365v-0.683c0 0 3.755 0 5.12 0 4.096 0 4.096 0 4.096 0 1.365 0 1.365-0.683 2.731 1.024 0-1.365 1.365-1.365 0-2.731s-2.731-1.365-5.803-1.365h-5.803c-0.683-0.341-2.048-0.683-4.437 0.683zM609.963 567.467l-5.803-8.533c0-1.365 0-14.336 0-14.336 0-1.365 3.413-12.629 0-12.629 0-2.731-1.365-5.803-1.365-8.533-1.365 0-2.731-1.365-2.731-1.365-1.365 0-2.731-4.096-4.096-4.096 0-4.096-1.365-7.168-1.365-12.629l-2.731-7.168c-1.365-1.365-8.533-7.168-8.533-9.899 0 0-4.096-5.803-4.096-7.168-1.365 0-11.264-1.365-11.264-2.731-1.365 0-7.168-1.365-8.533 0 0 1.365-1.365 4.437-1.365 7.168l-1.365 4.096-5.803 12.629c0 1.365-1.365 5.803-1.365 5.803 0 4.096-2.731 8.533-2.731 12.629 0 0-2.731 8.533-1.365 8.533 0 4.096 1.365 7.168 1.365 12.629 0 5.803 0 9.899-1.365 14.336 0 0-2.731 2.731-2.731 4.096-2.731 1.365-2.731 5.803-2.731 8.533 1.365 1.365 1.365 8.533 1.365 11.264-2.731 1.365-4.096 0-8.533 0-1.365 4.096-17.067 1.365-19.797 1.365 0-1.365-9.899 0-11.264 1.365-1.365 0-7.168 4.437-7.168 7.168-2.731 1.365-7.168 9.899-7.168 12.629-1.365 1.365-1.365 5.803 0 5.803 0 1.365 0 4.096-1.365 7.168 0 1.365 1.365 2.731 1.365 4.096 0 4.096 0 7.168 2.731 11.264 0 1.365 1.365 2.731 2.731 4.096 1.365 2.731 1.024 0 2.389 2.731 1.365 0 3.755 2.731 3.755 5.803 0 1.365 0 1.365 0 1.365s1.707 4.096 1.707 5.803c2.731 2.731 0.341 1.365 3.072 1.365 0 0 3.072 2.389 4.437 2.389 0 1.365 1.365 1.024 3.072 1.024h5.803c0 3.413 7.168 4.779 8.533 4.779 5.803 7.168 17.067 3.755 18.432 3.755 2.731 0 7.168-8.533 5.803-11.947 1.365 0 2.731 0 4.096 0 0 0 4.096-2.048 5.803-2.048 2.731 0 9.899 0.341 9.899 3.072 1.365 0 2.731-1.365 2.731-2.731 1.365 0 15.701 0 14.336-2.731 1.365 0 1.365-2.731 4.096-2.731 0-1.365 1.365-8.533 4.096-8.533 0-1.365 1.365-5.803 2.731-7.168 0-2.731 4.096-8.533 7.168-9.899-1.365-1.365 1.365-4.096 2.731-5.803 0 0-0.683-2.731 0.683-4.096 0-1.365 6.485-11.264 6.485-11.264 0-1.365 0-0.683 0-0.683h4.096c2.731 0 7.168-0.341 9.899 1.024 0-4.096-2.731-7.168-2.731-11.605-1.365 0-1.365-3.072-1.365-3.072-1.365 0-1.365-2.731-2.731-2.731 0-1.365-4.437-4.437-5.803-7.168s-6.144-3.755-6.144-6.485zM541.355 677.376c-0.341 0.341-0.341 0.683-0.683 1.024 0.341-1.024 0.683-1.365 1.024-1.365 0.341-1.707-0.341-3.755-2.389-2.731 1.365 1.365 0 4.096 1.365 4.096 0 0 0.341-0.341 0.683-1.024zM540.331 682.837c1.365 0 1.365 0 1.365 0 1.365 0 0-1.365 0-2.731-1.365-0.341-1.365 1.024-1.365 2.731zM548.864 668.501c0 1.365 1.365 0 2.731 0 2.731 0 1.365 0 2.731 0 0.341-4.437-2.389 0-5.461 0zM628.053 523.435c-3.413 0 0-3.755 0-3.755h-2.389c0-3.413-1.365-6.827-1.365-9.557-1.365 0-1.365-5.461-1.365-8.192 0-1.365-1.365-1.365-1.365-2.731-8.533 0-7.509 21.504-6.144 25.6 1.365 0 2.389-3.413 2.389-0.683v2.389c3.413 0 6.827-3.413 6.827 0-3.413 0 0 6.827 0 2.731 3.413 0 1.365 4.096 2.731 5.803 0-1.365 0.341-5.803 1.707-7.168 2.731-1.707-1.024-3.072-1.024-4.437zM642.731 635.733c0 0 2.731-2.731 1.365 0 2.731 0 2.731-5.803 0-7.168 0-1.365-1.365-1.365-1.365-4.437 0-1.365-1.365-4.096-1.365-4.096s-9.899-4.096-8.533-7.168c-1.365 0-7.168-1.365-8.533-4.096-1.365 0-5.803-1.365-5.803-2.731-5.803 0-4.096 7.168-7.168 7.168 0 1.365 0 1.365-1.365 2.731 1.365 0-5.803 14.336-5.803 17.067-1.365 0-2.731 4.096-2.731 5.803-1.365 1.365-2.731 4.096-4.096 5.803-1.365 1.365-5.803 5.803-5.803 8.533 1.365 0 5.803 0 5.803 1.365-1.365 0-1.365 1.365 0 1.365 0 1.365 1.365 2.389 1.365 4.096s1.365 3.413 1.365 6.827c-1.365 0-2.731 0-4.096 0h-4.096c0 3.413-7.168-1.024-8.533 1.707-2.731 2.731-1.365 4.437-2.731 8.533 0 1.365-2.731 1.365-4.096 1.365-4.096 0-1.365-4.096-1.365-5.803 2.731 0-1.365-2.731-1.365-4.096-4.096 0-2.731 5.803-5.461 7.168 0 1.365-1.024 1.365-1.024 1.365 0 1.365 0 4.096 0 5.803 0 0-3.072 1.365-4.437 1.365s-7.168 8.533-10.24 5.803c-4.096-1.365-2.048-1.365-2.048-2.731 2.731 0 3.072-5.803 6.485-4.096 0 0 0-1.365 0-2.731 3.413 0 3.413-1.365 4.779-1.365-1.365-1.365-4.096 1.365-2.731 0 0-1.365 0-2.731-1.365-5.803 0 1.365 0 7.168-1.365 7.168-1.365 2.731-5.803 1.365-7.168 4.096-1.365 0-1.365 4.096-4.096 4.096 0 0-1.365-1.365-2.731-1.365-1.365-2.731-8.533 0-8.533 0s-4.096-9.899-4.096-11.264c0-2.731-2.731-2.731-2.731-5.803 0-1.365-8.533 0-8.533-1.365-2.731 1.365-7.168 4.437-7.168 7.168 0 0 0 9.899 1.365 11.264 0 0 0 0 1.365-1.365 1.365 0 7.168 0 7.168 1.365 1.365 0 2.731 0 1.365-2.731 1.365 0 5.803 0 5.803 1.365-1.365 0-1.365 0-1.365 1.365 4.096 4.437-2.731 7.168-2.731 9.899-1.365 0-4.096 3.413-1.365 1.707 1.365 0 7.168-5.12 5.803 1.707 0 0 2.731-3.413 2.731 0 0 0 5.461 0.683 2.048 0.683 0 1.365 0 2.731 0 2.731 3.413-1.365 1.024 1.365 4.096 2.731 0-2.731 1.365 1.365 2.731 1.365 1.365 1.365 5.461 0 5.461 2.731-1.365 0-1.024 5.803-1.024 7.168 1.365 0 2.389 2.731 5.803 0 0 0 0-2.731 0-4.096 3.413-1.365 2.731 1.365 2.731 2.731-1.365 0-3.072 4.096-3.072 5.803 0 0-3.072 0-3.072-1.365-2.731 0-5.803 1.365-8.533 1.365l-2.731 4.096c-1.365 2.731 1.365 2.731 2.731 2.731 0 2.731 12.629 2.731 14.336 7.168-4.096 0 4.096 7.168 4.096 7.168 2.731 2.731 4.096 4.096 8.533 4.096 1.365 0 19.797 4.096 19.797 2.731 1.365 0 12.629 0 12.629-1.365 1.365 0 5.803-1.707 7.168-1.707 1.365 1.365 11.264-2.731 11.264-6.144-4.096 0-11.605 0-15.019 0 0 0 0 1.024 0-0.683 0 0 5.461-3.413 4.096-5.12 2.731 0 2.731 2.048 5.461 2.048 0-3.413 4.096-3.413 4.096 0-3.413 0 0 1.365 0 1.365 0 1.365 3.413 0 5.12 2.731 19.797-26.965 36.523-65.536 39.595-106.837-2.731 0-5.803 0-7.168 1.365-3.072 0-6.144 1.707-9.557 3.072-0.341-0.341-0.341-1.024-0.341-1.707 0-0.341 0-0.341 0-1.707zM631.467 641.536c0-1.365 0-2.731 0-2.731 3.413-2.731 0.683 0 0.683-2.731 2.731 0 4.779 1.365 7.509 4.779-2.389 0.683-4.779 1.024-8.192 0.683zM625.664 648.704c0-1.365 1.365-5.803 2.731-5.803 0 0 0-2.731 1.365-2.731 1.365-1.365 0-2.731 0-2.731 1.365 0 1.365 0 2.731 4.096 0.341 1.365-3.755 11.264-6.827 7.168zM641.365 641.536c-0.341-0.341-0.341-0.683-0.683-1.024 0.341 0 0.683-0.341 1.024-0.341 0.341 0.683 0.683 1.365-0.341 1.365zM632.832 641.536v0 0z" />
<glyph unicode="&#xe609;" glyph-name="V10_04_RotateLeft" d="M560-29.6c252.8 0 464 204.8 464 460.8 0 252.8-204.8 460.8-460.8 460.8-252.8 0-460.8-204.8-460.8-460.8 0-24 0-54.4 7.2-78.4h-109.6l174.4-174.4 174.4 174.4h-116.8c-7.2 24-7.2 54.4-7.2 78.4 0 184 150.4 334.4 334.4 334.4s334.4-150.4 334.4-334.4-149.6-334.4-333.6-334.4v-126.4z" />
<glyph unicode="&#xe60a;" glyph-name="V11_05_RotateRight" d="M460.8-29.6c-252.8 0-460.8 204.8-460.8 460.8 0 252 204.8 460.8 460.8 460.8 252.8 0 460.8-204.8 460.8-460.8 0-24 0-54.4-7.2-78.4h109.6l-174.4-174.4-173.6 174.4h116c7.2 24 7.2 54.4 7.2 78.4 0 184-150.4 334.4-334.4 334.4s-338.4-150.4-338.4-334.4 150.4-334.4 334.4-334.4v-126.4z" />
<glyph unicode="&#xe60b;" glyph-name="V12_08_Magnify" d="M232.107-57.173v71.68h139.947v-71.68h-139.947zM0 171.52h71.68v139.947h-71.68v-139.947zM153.6 11.093h-81.92v81.92h-71.68v-153.6h153.6v71.68zM518.827 96.427v-81.92h-81.92v-71.68h153.6v153.6h-71.68zM522.24 236.373v-71.68h71.68v85.333c27.307 10.24 54.613 20.48 78.507 37.547l232.107-232.107 119.467 109.227-232.107 232.107c30.72 51.2 51.2 116.053 51.2 184.32 0 191.147-153.6 344.747-344.747 344.747s-344.747-153.6-344.747-344.747 153.6-344.747 344.747-344.747c6.827 0 17.067 0 23.893 0v0zM71.68 376.32v81.92h81.92v71.68h-153.6v-153.6h71.68zM256 581.12c0 133.12 109.227 249.173 249.173 249.173 133.12 0 249.173-109.227 249.173-249.173 0-133.12-109.227-249.173-249.173-249.173s-249.173 116.053-249.173 249.173z" />
<glyph unicode="&#xe60c;" glyph-name="V13_06_PanMode" d="M501.76 895.147c23.893 0 44.373-20.48 51.2-44.373l27.307-314.027c6.827-20.48 13.653-23.893 13.653-23.893 6.827 0 20.48 20.48 20.48 20.48l44.373 262.827c6.827 23.893 27.307 37.547 44.373 37.547h6.827c23.893-6.827 44.373-30.72 37.547-58.027l-44.373-256c0 0 0-37.547 13.653-37.547 6.827 0 13.653 6.827 20.48 20.48v0l78.507 167.253c6.827 13.653 23.893 23.893 37.547 23.893 6.827 0 20.48 0 27.307-6.827 23.893-13.653 30.72-44.373 13.653-64.853l-133.12-286.72c0 0-20.48-126.293-71.68-228.693v-88.747h-279.893v88.747c0 0-51.2 30.72-102.4 116.053l-153.6 122.88c-20.48 20.48-23.893 44.373-6.827 71.68 13.653 13.653 23.893 20.48 37.547 20.48s20.48-6.827 30.72-13.653l81.92-78.507c13.653-6.827 20.48-13.653 30.72-13.653 23.893 0 51.2 37.547 13.653 160.427l-75.093 256c-6.827 27.307 3.413 51.2 30.72 58.027h13.653c20.48 0 37.547-13.653 44.373-30.72l78.507-249.173v-6.827c6.827-20.48 20.48-37.547 30.72-37.547 6.827 0 13.653 13.653 13.653 58.027l-27.307 307.2c0 23.893 23.893 40.96 51.2 47.787v0 0zM501.76 960h-6.827c-64.853-6.827-109.227-58.027-102.4-122.88v0c-20.48 23.893-51.2 37.547-81.92 37.547-13.653 0-20.48 0-30.72-6.827-27.307-3.413-54.613-23.893-64.853-54.613-13.653-27.307-20.48-58.027-6.827-81.92l75.093-256c6.827-20.48 6.827-30.72 13.653-44.373l-51.2 37.547c-20.48 20.48-44.373 23.893-71.68 23.893v0c-30.72 0-64.853-13.653-81.92-37.547s-23.893-51.2-23.893-81.92c0-30.72 20.48-58.027 37.547-75.093l153.6-129.707c30.72-51.2 64.853-81.92 88.747-109.227v-122.88h409.6v136.533c44.373 88.747 64.853 191.147 71.68 225.28l133.12 279.893c30.72 51.2 13.653 122.88-37.547 153.6-20.48 13.653-37.547 20.48-58.027 20.48-13.653 0-30.72 0-44.373-6.827l6.827 23.893c13.653 64.853-30.72 122.88-88.747 126.293h-20.48c-37.547 0-71.68-20.48-88.747-44.373v6.827c-20.48 51.2-71.68 102.4-129.707 102.4v0 0z" />
<glyph unicode="&#xe60d;" glyph-name="V14_07_Select" d="M846.4 376l-641.6 584v-863.2l225.6 146.4 132.8-307.2 160.8 72-133.6 307.2 256 60.8zM460.8 369.6l-81.6-51.2-88.8-61.6v512l375.2-344.8-204.8-54.4z" />
<glyph unicode="&#xe60e;" glyph-name="V15_26_Text" d="M938.667 960h-836.267v-232.107h88.747c0 51.2 37.547 88.747 88.747 88.747h139.947v-703.147c0-51.2-37.547-88.747-88.747-88.747h-30.72v-88.747h436.907v88.747h-27.307c-51.2 0-88.747 37.547-88.747 88.747v706.56h139.947c51.2 0 88.747-37.547 88.747-88.747h88.747v228.693z" />
<glyph unicode="&#xe60f;" glyph-name="V16_08_Highlight" d="M456.533 157.867c-12.8 0-25.6-7.111-38.4-19.911v-92.444c5.689-5.689 12.8-9.956 18.489-11.378s11.378-2.844 17.067-2.844c11.378 0 21.333 5.689 29.867 15.644s12.8 27.022 12.8 51.2c-1.422 39.822-14.222 59.733-39.822 59.733zM143.644 49.778c0-7.111 2.844-12.8 7.111-15.644s11.378-5.689 18.489-5.689c7.111 0 14.222 1.422 19.911 5.689 5.689 2.844 11.378 8.533 17.067 14.222v39.822c-24.178-2.844-39.822-8.533-49.778-14.222s-12.8-15.644-12.8-24.178zM0 334.222v-398.222h597.333v398.222h-597.333zM273.067-18.489h-54.044l-5.689 24.178h-1.422c-9.956-8.533-19.911-15.644-29.867-21.333s-22.756-8.533-35.556-8.533c-9.956 0-19.911 1.422-28.444 5.689-8.533 2.844-15.644 8.533-21.333 14.222s-9.956 12.8-12.8 21.333c-2.844 8.533-4.267 17.067-4.267 27.022 0 24.178 9.956 42.667 29.867 55.467s52.622 22.756 96.711 27.022c0 9.956-4.267 18.489-8.533 24.178-5.689 5.689-14.222 8.533-27.022 8.533-9.956 0-19.911-1.422-28.444-5.689-9.956-4.267-19.911-8.533-31.289-15.644l-24.178 44.089c14.222 8.533 29.867 15.644 45.511 21.333s32.711 8.533 51.2 8.533c28.444 0 51.2-8.533 66.844-24.178s22.756-42.667 22.756-76.8v-129.422zM556.089 46.933c-5.689-15.644-12.8-28.444-21.333-38.4s-18.489-18.489-29.867-24.178c-11.378-5.689-22.756-8.533-35.556-8.533-9.956 0-19.911 2.844-29.867 7.111-9.956 5.689-19.911 12.8-28.444 22.756h-1.422l-5.689-24.178h-52.622v320h66.844v-78.222l-1.422-34.133c8.533 8.533 18.489 14.222 28.444 18.489s19.911 7.111 31.289 7.111c14.222 0 25.6-2.844 36.978-8.533s19.911-12.8 28.444-22.756c7.111-9.956 14.222-21.333 17.067-35.556s5.689-29.867 5.689-46.933c0-21.333-2.844-38.4-8.533-54.044zM731.022-24.178c-15.644 0-29.867 2.844-44.089 8.533s-25.6 12.8-35.556 22.756-18.489 22.756-24.178 36.978c-5.689 14.222-8.533 31.289-8.533 49.778s2.844 35.556 9.956 49.778 14.222 27.022 25.6 36.978c11.378 9.956 22.756 17.067 36.978 22.756s28.444 8.533 44.089 8.533c14.222 0 27.022-2.844 36.978-7.111 11.378-4.267 19.911-9.956 28.444-17.067l-31.289-42.667c-9.956 8.533-21.333 12.8-29.867 12.8-17.067 0-29.867-5.689-38.4-17.067-9.956-11.378-14.222-27.022-14.222-46.933s4.267-35.556 14.222-46.933 21.333-17.067 35.556-17.067c7.111 0 14.222 1.422 21.333 4.267s12.8 7.111 19.911 11.378l27.022-44.089c-11.378-9.956-22.756-17.067-36.978-21.333s-24.178-4.267-36.978-4.267zM604.444 432.356l-110.933 113.778c-1.422 1.422-4.267 2.844-7.111 1.422-2.844 0-4.267-2.844-5.689-4.267l-21.333-68.267-22.756-24.178 75.378-76.8 21.333 22.756 69.689 22.756c2.844 1.422 4.267 2.844 4.267 5.689-1.422 2.844-1.422 5.689-2.844 7.111zM482.133 374.044l-49.778 48.356-58.311-58.311 83.911-12.8zM508.463 569.729l384.16 384.16 126.712-126.712-384.16-384.16-126.712 126.712z" />
<glyph unicode="&#xe610;" glyph-name="V100_DeleteBatch" d="M172.8 134.4h-96v560h195.2v188.8h320v-108.8h80v185.6h-480l-192-188.8v-713.6h172.8v76.8zM716.8-67.2h96v22.4l-35.2 35.2-60.8-57.6zM275.2 0v505.6h176v166.4h291.2v-256l35.2-35.2 35.2 35.2v323.2h-432l-176-169.6v-636.8h364.8l-67.2 67.2h-227.2zM912-51.2l108.8 105.6-137.6 134.4 137.6 134.4-108.8 105.6-140.8-137.6-140.8 137.6-108.8-105.6 140.8-134.4-140.8-134.4 108.8-105.6 140.8 134.4 140.8-134.4z" />
<glyph unicode="&#xe611;" glyph-name="V101_Delete_Page" d="M659.2-64h115.2v32l-41.6 41.6-73.6-73.6zM89.6 22.4v640h220.8v211.2h368v-326.4l44.8-41.6 44.8 44.8v409.6h-544l-224-214.4v-809.6h464l-89.6 86.4h-284.8zM892.8-32l131.2 128-166.4 163.2 166.4 163.2-131.2 128-169.6-166.4-166.4 163.2-131.2-128 166.4-163.2-166.4-160 131.2-128 166.4 163.2 169.6-163.2z" />
<glyph unicode="&#xe612;" glyph-name="V102_New_Document" d="M204.8 931.556l-147.911-140.8h146.489v140.8zM465.067 85.333v227.556h169.244v174.933h155.022v443.733h-520.533v-201.956h-211.911v-765.156h578.844v119.467l-170.667 1.422zM802.133 428.089h-126.578v-166.4h-164.978v-126.578h164.978v-166.4h126.578v166.4h164.978v126.578h-164.978v166.4z" />
<glyph unicode="&#xe613;" glyph-name="V103_Delete_Document" d="M187.733 931.556l-130.844-133.689h130.844v133.689zM964.267 329.956l-95.289 96.711-122.311-123.733-122.311 120.889-95.289-96.711 125.156-120.889-122.311-123.733 95.289-96.711 122.311 123.733 122.311-123.733 95.289 96.711-125.156 123.733 122.311 123.733zM746.667-35.556v99.556l-95.289-99.556h95.289zM611.556 206.222l-130.844 132.267 136.533 139.378 128-132.267v585.956h-487.822v-201.956h-200.533v-765.156h530.489l-106.667 108.089 130.844 133.689z" />
<glyph unicode="&#xe614;" glyph-name="V104_NewPage" d="M524.8 22.4h-438.4v640h214.4v211.2h358.4v-211.2h86.4v297.6h-531.2l-214.4-214.4v-809.6h524.8v86.4zM793.6 576h-182.4v-230.4h-230.4v-182.4h230.4v-227.2h182.4v230.4h230.4v182.4h-230.4v227.2z" />
<glyph unicode="&#xe615;" glyph-name="V105_CopyMovePage" d="M746.667 585.956v173.511h-423.822v-823.467h595.911v649.956h-119.467zM780.8 627.2h119.467l-8.533 8.533-103.822 102.4-7.111 8.533zM595.911 840.533h119.467l-8.533 7.111-102.4 103.822-8.533 7.111zM228.978 740.978v95.289h318.578v123.733h-442.311v-898.844h183.467v108.089h-59.733v110.933z" />
<glyph unicode="&#xe616;" glyph-name="V106_Attach_Page" d="M85.333 25.6v635.733h213.333v213.333h355.556v-183.467l55.467-48.356 28.444-25.6v342.756h-524.8v-1.422l-213.333-211.911v-806.4h568.889v85.333zM654.222 577.422v-238.933h-352.711v-159.289h352.711v-238.933l369.778 318.578z" />
<glyph unicode="&#xe617;" glyph-name="V17_09_Freehand" d="M721.067 126.578c-39.822-28.444-86.756-44.089-135.111-44.089-59.733 0-116.622 22.756-156.444 62.578-55.467 58.311-79.644 157.867-22.756 217.6 35.556 35.556 98.133 41.244 164.978 46.933h5.689c65.422 7.111 139.378 14.222 210.489 51.2h1.422c83.911 48.356 142.222 200.533 95.289 329.956-42.667 110.933-153.6 169.244-318.578 169.244-45.511 0-95.289-4.267-147.911-14.222h-2.844c-36.978-9.956-59.733-42.667-55.467-76.8 4.267-35.556 35.556-65.422 68.267-65.422h5.689c49.778 9.956 95.289 14.222 135.111 14.222 69.689 0 157.867-15.644 183.467-86.756 24.178-65.422-18.489-149.333-38.4-162.133-32.711-19.911-73.956-24.178-122.311-28.444-11.378-1.422-21.333-1.422-31.289-2.844h-4.267c-78.222-5.689-174.933-14.222-248.889-91.022-49.778-49.778-76.8-122.311-69.689-194.844 0-79.644 31.289-150.756 91.022-210.489 62.578-68.267 150.756-105.244 256-105.244 82.489 0 152.178 22.756 216.178 71.111 15.644 9.956 25.6 27.022 29.867 45.511 4.267 19.911 0 38.4-9.956 54.044-19.911 31.289-66.844 41.244-99.556 19.911z" />
<glyph unicode="&#xe618;" glyph-name="V18_29_Line" d="M885.779-63.353l-885.779 885.779 137.573 137.573 885.779-885.779-137.573-137.573z" />
<glyph unicode="&#xe619;" glyph-name="V19_10_Arrow" d="M884.053 960l-709.973-709.973-129.707 126.293-44.373-440.32 440.32 44.373-126.293 129.707 709.973 709.973-139.947 139.947z" />
<glyph unicode="&#xe61a;" glyph-name="V20_11_Rectangle" d="M901.12 837.12v-781.653h-778.24v781.653h778.24zM1024 960h-1024v-1024h1024v1024z" />
<glyph unicode="&#xe61b;" glyph-name="V21_32_RoundedRectangle" d="M798.72-64h-573.44c-122.88 0-225.28 102.4-225.28 225.28v573.44c0 122.88 102.4 225.28 225.28 225.28h570.027c126.293 0 228.693-102.4 228.693-225.28v-570.027c0-126.293-102.4-228.693-225.28-228.693zM225.28 823.467c-51.2 0-95.573-44.373-95.573-95.573v-570.027c0-51.2 44.373-95.573 95.573-95.573h570.027c51.2 0 95.573 44.373 95.573 95.573v570.027c0 51.2-44.373 95.573-95.573 95.573h-570.027z" />
<glyph unicode="&#xe61c;" glyph-name="V22_12_Oval" d="M512 891.733c276.48 0 512-194.56 512-443.733s-228.693-443.733-512-443.733-512 197.973-512 443.733 235.52 443.733 512 443.733zM512 113.493c211.627 0 385.707 150.187 385.707 334.507s-174.080 334.507-385.707 334.507-385.707-150.187-385.707-334.507 174.080-334.507 385.707-334.507z" />
<glyph unicode="&#xe61d;" glyph-name="V23_13_Polyline" d="M775.2-64l-597.6 204.8v140l495.2-170.4-191.2 348c-13.6 20.8-13.6 44 0 64.8l184 310.4h-495.2v126.4h604c24 0 44-13.6 51.2-30.4 13.6-20.8 13.6-44 0-64.8l-221.6-376 242.4-440c13.6-20.8 7.2-44-7.2-68-12.8-31.2-44-44.8-64-44.8v0z" />
<glyph unicode="&#xe61e;" glyph-name="V24_14_Polygon" d="M768 891.733h-512l-256-447.147 256-447.147h512l256 447.147-256 447.147zM894.293 444.587l-191.147-334.507h-382.293l-191.147 334.507 191.147 334.507h382.293l191.147-334.507z" />
<glyph unicode="&#xe61f;" glyph-name="V25_LineColor" d="M761.6 371.2c0-16-12.8-35.2-32-35.2h-556.8c-19.2 0-35.2 19.2-35.2 35.2v470.4c-3.2 16 16 22.4 35.2 22.4h480l102.4 89.6c-9.6 0-19.2 6.4-28.8 6.4h-553.6c-76.8 0-140.8-54.4-140.8-118.4v-470.4c0-64 64-118.4 140.8-118.4h553.6c76.8 0 137.6 54.4 137.6 118.4v259.2l-105.6-86.4 3.2-172.8zM486.4 617.6v0 0 0l-64-185.6 201.6 60.8 368 336-137.6 124.8-368-336zM608 518.4l-137.6-41.6 44.8 124.8 92.8-83.2z" />
<glyph unicode="&#xe620;" glyph-name="V26_17_LineWidth" d="M0 321.707h1024v-242.347h-1024v242.347zM0 823.467h1024v-51.2h-1024v51.2zM0 628.907h1024v-157.013h-1024v157.013z" />
<glyph unicode="&#xe621;" glyph-name="V27_15_Fill" d="M816 534.128v2.832c0 15.616-8.448 31.232-12.704 42.592-21.296 48.272-65.264 107.888-129.152 167.52-36.912 39.744-80.192 73.824-117.104 97.952-21.296 12.768-37.248 21.296-55.712 31.232-9.936 5.664-21.472 5.664-27.136 5.664-9.936 9.936-21.376 21.296-34.16 31.232-15.616 15.616-31.28 29.808-45.472 36.912s-38.352 9.936-56.8 9.936c-26.976 0-55.376-9.936-76.672-34.064-21.296-18.448-29.824-45.424-26.976-73.824 0-24.128 5.68-42.592 18.448-69.568 9.936-15.616 21.296-31.232 29.808-39.744l-134.864-137.696c-9.936-9.936-15.616-26.976-15.616-34.064 0-15.616 5.68-31.232 9.936-42.592 21.296-48.272 63.888-107.888 127.76-167.52 39.744-39.744 150.48-119.248 171.776-127.76 31.232-11.36 73.824-14.192 85.168-7.104l256.944 256.944c-26.976-73.824-58.208-187.392-58.208-211.52 0-42.592 34.064-79.504 79.504-79.504s82.272 34.064 82.272 79.504c0 34.080-55.040 198.752-71.040 262.64zM327.792 772.608c-14.192 12.784-18.448 25.552-24.128 34.064-11.36 21.296-15.616 34.064-15.616 45.424 0 15.616 2.832 26.976 18.448 39.744s34.064 18.448 45.424 18.448c11.36 0 21.296-2.832 31.232-8.512 15.616-5.68 26.976-18.448 42.592-34.064l-97.952-95.104zM772.128 528.448c-2.832-5.68-21.296 0-31.232 5.68-69.552 25.552-194.48 156.16-207.264 177.456-21.296 21.296-45.424 55.36-55.36 76.656-9.936 15.616-26.976 48.272-21.296 55.36 2.832 5.68 15.616 2.832 31.232-8.512 36.912-18.448 100.784-61.040 156.16-119.248 21.296-21.296 48.272-48.272 66.72-66.72 12.768-22.72 76.656-89.44 61.040-120.672z" />
<glyph unicode="&#xe622;" glyph-name="V28_45_Fill_b" d="M385.707 362.667c0-47.787-40.96-85.333-85.333-85.333-47.787 0-85.333 40.96-85.333 85.333 0 47.787 40.96 85.333 85.333 85.333s85.333-37.547 85.333-85.333v0zM348.16 536.747c-47.787 0-85.333 40.96-85.333 85.333 0 47.787 40.96 85.333 85.333 85.333 47.787 0 85.333-37.547 85.333-85.333 0-44.373-40.96-85.333-85.333-85.333v0zM679.253 704c0-47.787-40.96-85.333-85.333-85.333-47.787 0-85.333 40.96-85.333 85.333 0 47.787 37.547 85.333 85.333 85.333 54.613 0 85.333-37.547 85.333-85.333v0zM174.080 31.573c194.56-13.653 126.293 194.56 307.2 194.56l78.507-68.267c13.653-235.52-273.067-286.72-385.707-126.293v0zM774.827 338.773c61.44 92.16 245.76 413.013 245.76 413.013 13.653 27.307-20.48 54.613-40.96 34.133 0 0-279.893-238.933-361.813-320.853-68.267-61.44-68.267-85.333-85.333-187.733l75.093-61.44c85.333 40.96 112.64 40.96 167.253 122.88v0zM232.107 130.56c-85.333 78.507-146.773 194.56-146.773 314.027 0 232.107 187.733 426.667 423.253 426.667 160.427 0 273.067-78.507 273.067-146.773 27.307 20.48 47.787 47.787 75.093 61.44-40.96 92.16-180.907 174.080-348.16 167.253-283.307-3.413-508.587-235.52-508.587-515.413 0-126.293 47.787-232.107 119.467-327.68 47.787-6.827 95.573 0 112.64 20.48v0zM781.653 209.067c47.787-85.333-61.44-139.947-153.6-167.253-13.653-40.96-34.133-75.093-61.44-98.987 221.867 27.307 389.12 180.907 266.24 334.507-20.48-27.307-30.72-47.787-51.2-68.267v0z" />
<glyph unicode="&#xe623;" glyph-name="V29_16_Redaction" d="M608 624l-105.6 102.4-310.4-307.2 105.6-102.4 294.4 294.4c9.6 12.8 16 12.8 16 12.8v0zM777.6 236.8l-22.4 19.2-28.8-28.8-22.4 19.2 73.6 102.4 96 153.6-96 96-32 28.8-41.6-41.6-6.4 6.4c-12.8 12.8-38.4 19.2-57.6 6.4l-6.4-6.4-310.4-294.4c-12.8-19.2-12.8-44.8 0-67.2l57.6-57.6c22.4-19.2 44.8-19.2 67.2 0l294.4 294.4c22.4 19.2 22.4 44.8 0 67.2l-12.8 19.2 12.8 12.8 57.6-57.6-32-51.2-86.4-131.2-41.6-73.6 44.8-44.8-32-32 249.6-240 89.6 96-214.4 204.8zM691.2 19.2h-572.8v640h217.6v214.4h355.2v-204.8l57.6 54.4 28.8-28.8v265.6h-534.4l-214.4-217.6v-806.4h748.8v12.8l-86.4 83.2v-12.8z" />
<glyph unicode="&#xe624;" glyph-name="V30_20_RubberStamp" d="M979.2 275.2v-208h-934.4v208h336c0 35.2 0 64-6.4 92.8-16 86.4-51.2 156.8-89.6 233.6-41.6 83.2-41.6 163.2 12.8 243.2 89.6 144 291.2 156.8 403.2 28.8 64-86.4 80-166.4 38.4-265.6-32-70.4-73.6-144-89.6-220.8-6.4-35.2-16-70.4-6.4-108.8h336v-3.2zM102.4-64v44.8h812.8v-44.8c0 0-812.8 0-812.8 0z" />
<glyph unicode="&#xe625;" glyph-name="V31_29_Clear_annotation_b" d="M614.4 70.4h-534.4v569.6h201.6v192h336v-80l73.6 70.4 6.4 6.4v76.8h-496l-201.6-192v-723.2h694.4l-6.4 73.6-73.6 6.4zM614.4 67.2h-534.4v569.6h201.6v192h336v-80l73.6 70.4 6.4 6.4v80h-496l-201.6-192v-723.2h694.4v86.4l-80-9.6zM915.2-64l108.8 108.8-137.6 137.6 137.6 137.6-108.8 108.8-137.6-137.6-137.6 137.6-112-108.8 137.6-134.4-137.6-137.6 108.8-108.8 137.6 137.6 140.8-140.8zM496 585.6v0 0 0l-67.2-204.8 204.8 67.2 371.2 374.4-137.6 137.6c0 0-371.2-374.4-371.2-374.4zM617.6 476.8l-137.6-44.8 44.8 137.6c0 0 92.8-92.8 92.8-92.8zM182.4 304h230.4v-44.8h-230.4v44.8zM182.4 444.8h169.6v-44.8h-169.6c0-3.2 0 44.8 0 44.8z" />
<glyph unicode="&#xe626;" glyph-name="V32_19_Save" d="M587.093 826.88h105.813v-194.56h-105.813v194.56zM1013.76 779.093v-843.093h-1003.52v1024h815.787l187.733-180.907zM245.76 577.707h508.587v307.2h-508.587v-307.2zM866.987 410.453h-709.973v-395.947h709.973v395.947z" />
<glyph unicode="&#xe627;" glyph-name="V33_Cancel" d="M73.6 556.8l428.8 396.8v-236.8c0 0 192 6.4 313.6-96 230.4-188.8 185.6-630.4-307.2-678.4 0 0 153.6 48 217.6 134.4 70.4 96 76.8 326.4-224 342.4v-252.8l-428.8 390.4z" />
<glyph unicode="&#xe628;" glyph-name="V34_Print" d="M773.632 708.109v179.93h-521.766v-179.93h-200.115v-473.6h200.115v-209.254h371.059v0.435l150.707 150.426v58.406h199.718v473.587h-199.718zM909.325 644.518v-58.944h-115.942v58.944h115.942zM311.846 828.058h401.805v-119.949h-401.805v119.949zM562.944 85.235h-251.098v355.443h-59.981v-142.118h-71.539v217.69h667.597v-217.69h-74.291v142.118h-59.994v-204.595h-150.694v-150.848z" />
<glyph unicode="&#xe629;" glyph-name="V35_19_PrintPDF" d="M696.32 847.36h78.507v40.96h-78.507v34.133h85.333v37.547h-126.293v-191.147h40.96zM877.227 546.987h-129.707v133.12h-477.867v-133.12h-126.293c-20.48 0-40.96-13.653-40.96-37.547v-334.507h167.253v-238.933h300.373l180.907 180.907v58.027h167.253v331.093c0 20.48-20.48 40.96-40.96 40.96zM317.44 639.147h385.707v-92.16h-385.707v92.16zM795.307 243.2h-47.787v85.333h-47.787v-146.773c0-71.68-160.427-34.133-160.427-34.133s34.133-167.253-40.96-167.253h-187.733v348.16h-47.787v-92.16h-47.787v157.013h580.267v-150.187zM839.68 448c-20.48 0-34.133 13.653-34.133 34.133s13.653 34.133 34.133 34.133c20.48 0 34.133-13.653 34.133-34.133s-13.653-34.133-34.133-34.133zM604.16 796.16c27.307 34.133 30.72 105.813-3.413 139.947-20.48 17.067-37.547 23.893-64.853 23.893h-78.507v-191.147h78.507c27.307 0 51.2 6.827 68.267 27.307zM501.76 919.040h27.307c27.307 0 44.373-6.827 51.2-30.72 6.827-13.653 3.413-34.133 0-51.2-6.827-20.48-23.893-27.307-44.373-27.307h-34.133v109.227zM317.44 833.707h40.96c34.133 0 54.613 13.653 64.853 40.96 6.827 13.653 6.827 34.133 0 47.787-6.827 23.893-34.133 37.547-68.267 37.547h-85.333v-191.147h47.787v64.853zM317.44 919.040h27.307c13.653 0 27.307 0 30.72-10.24s3.413-23.893-3.413-30.72c-6.827-13.653-20.48-13.653-27.307-13.653h-27.307v54.613z" />
<glyph unicode="&#xe62a;" glyph-name="V36_PrevPage" d="M883.2-10.278v921.946l-755.942-460.288z" />
<glyph unicode="&#xe62b;" glyph-name="V37_NextPage" d="M127.245 911.667v-921.958l755.955 460.288z" />
<glyph unicode="&#xe62c;" glyph-name="V38_40_SelectAll" d="M457.387 239.787h58.027v-119.467h-58.027v119.467zM218.453 239.787h177.493v-119.467h-177.493v119.467zM129.707 270.507h-119.467v-150.187h150.187v119.467h-30.72v30.72zM10.24 744.96h119.467v-177.493h-119.467v177.493zM10.24 512.853h119.467v-177.493h-119.467v177.493zM10.24 809.813h119.467v30.72h30.72v119.467h-150.187v-150.187zM218.453 960h177.493v-119.467h-177.493v119.467zM457.387 960h177.493v-119.467h-177.493v119.467zM723.627 809.813h119.467v150.187h-143.36v-119.467h23.893v-30.72zM723.627 744.96h119.467v-177.493h-119.467v177.493zM723.627 478.72l119.467-112.64v146.773h-119.467v-34.133zM795.307 157.867l47.787 13.653 102.4 23.893-150.187 133.12-71.68 61.44-143.36 139.947v-498.347l126.293 88.747 75.093-184.32 95.573 44.373-64.853 139.947-17.067 37.547z" />
<glyph unicode="&#xe62d;" glyph-name="V39_41_MoveToFront" d="M334.507 267.093h-334.507v682.667h689.493v-314.027h334.507v-689.493h-689.493v320.853zM590.507 635.733v208.213h-477.867v-477.867h221.867v269.653h256z" />
<glyph unicode="&#xe62e;" glyph-name="V40_42_MoveToBack" d="M331.093 267.093v-324.267h692.907v686.080h-331.093v324.267h-692.907v-686.080h331.093zM692.907 526.507h228.693v-481.28h-481.28v221.867h252.587v259.413z" />
<glyph unicode="&#xe62f;" glyph-name="V41_43_ShowHide" d="M634.88 79.36c47.128 0 85.333 38.205 85.333 85.333s-38.205 85.333-85.333 85.333c-47.128 0-85.333-38.205-85.333-85.333s38.205-85.333 85.333-85.333zM238.933 936.107l-238.933-232.107h238.933v232.107zM187.733 147.627l-27.307 37.547 27.307 37.547c6.827 6.827 167.253 225.28 440.32 225.28 58.027 0 102.4-6.827 150.187-20.48v512h-460.8v-317.44h-317.44v-648.533h361.813c-102.4 75.093-167.253 167.253-174.080 174.080zM785.067 359.253c-44.373 13.653-95.573 27.307-150.187 27.307-245.76 0-389.12-201.387-389.12-201.387s102.4-150.187 259.413-208.213c37.547-13.653 85.333-27.307 129.707-27.307 51.2 0 95.573 6.827 136.533 27.307 6.827 0 13.653 6.827 13.653 6.827 157.013 64.853 238.933 201.387 238.933 201.387s-85.333 116.053-238.933 174.080zM634.88 17.92c-85.333 0-150.187 64.853-150.187 150.187s64.853 150.187 150.187 150.187c71.68 0 150.187-54.613 150.187-150.187 0-88.747-78.507-150.187-150.187-150.187v0z" />
<glyph unicode="&#xe630;" glyph-name="V42_NewVersion" d="M524.8 25.6h-435.2v634.311h214.756v210.489h358.4v-211.911h86.756v298.667h-531.911l-214.756-214.756v-803.556h521.956v86.756zM790.756 576h-182.044v-227.556h-230.4v-179.2h230.4v-227.556h182.044v227.556h230.4v179.2h-230.4v227.556zM271.644 521.956h281.6v-69.689h-281.6v69.689zM271.644 371.2h66.844v-71.111h-66.844v71.111zM271.644 220.444h66.844v-71.111h-66.844v71.111zM224.711 486.4c0-19.911-15.644-35.556-35.556-35.556s-35.556 15.644-35.556 35.556c0 19.911 15.644 35.556 35.556 35.556s35.556-15.644 35.556-35.556zM224.711 335.644c0-19.911-15.644-35.556-35.556-35.556s-35.556 15.644-35.556 35.556 15.644 35.556 35.556 35.556 35.556-15.644 35.556-35.556zM224.711 184.889c0-19.911-15.644-35.556-35.556-35.556s-35.556 15.644-35.556 35.556c0 18.489 15.644 35.556 35.556 35.556s35.556-15.644 35.556-35.556z" />
<glyph unicode="&#xe631;" glyph-name="V43ClearAllbeforeCurrent" d="M1024 365.511l-120.889 120.889-153.6-153.6-155.022 153.6-120.889-120.889 153.6-153.6-153.6-155.022 120.889-120.889 155.022 153.6 153.6-153.6 120.889 120.889-153.6 155.022zM554.667 519.111v1.422l-1.422-1.422zM71.111 177.778v526.222h184.889v184.889h298.667v-368.356l45.511 48.356 25.6-24.178v415.289h-446.578l-179.2-182.044v-671.289h438.044l73.956 71.111zM128 362.667l237.511 156.444-237.511 156.444zM412.444 675.556h56.889v-312.889h-56.889v312.889z" />
<glyph unicode="&#xe632;" glyph-name="V107_Attach_Pages" d="M268.8 516.267h169.244v170.667h280.178v-146.489l44.089-39.822 21.333-19.911v273.067h-413.867l-167.822-170.667v-642.844h449.422v66.844h-382.578zM72.533 701.156h182.044v184.889h304.356v-108.089h72.533v182.044h-449.422l-182.044-184.889v-698.311h163.556v73.956h-91.022zM1024 201.956l-305.778 263.111v-199.111h-292.978v-130.844h292.978v-199.111z" />
<glyph unicode="&#xe633;" glyph-name="V116_Placeholder_Text" horiz-adv-x="922" d="M349.867 146.944h-31.061v16.043h80.896v-16.043h-31.061v-91.136h-19.115v91.136zM438.613 54.101c-5.461 0-10.923 1.024-15.701 2.731-4.779 2.048-8.875 4.779-12.629 8.192s-6.485 7.851-8.533 13.312c-2.048 5.12-3.072 11.264-3.072 17.749s1.024 12.288 3.072 17.749c2.048 5.12 4.779 9.557 8.192 13.312s7.509 6.485 11.947 8.192c4.437 2.048 9.216 3.072 13.653 3.072 5.461 0 10.24-1.024 14.336-2.731s7.509-4.437 10.24-7.851c2.731-3.413 4.779-7.509 6.144-12.288s2.048-9.899 2.048-15.36c0-1.707 0-3.755-0.341-5.12s-0.341-3.072-0.683-4.096h-51.2c1.024-7.168 3.413-12.629 7.509-16.725 4.096-3.755 9.557-5.803 16.043-5.803 3.413 0 6.827 0.683 9.899 1.707s6.144 2.389 8.875 4.437l6.485-11.947c-3.755-2.389-8.192-4.437-12.629-6.144-3.413-1.707-8.533-2.389-13.653-2.389zM452.949 103.936c0 6.144-1.365 11.264-4.096 14.677s-6.827 5.461-12.288 5.461c-4.779 0-8.875-1.707-12.629-5.12s-5.803-8.192-6.827-15.019h35.84zM501.419 97.792l-23.893 38.571h20.48l8.875-15.36c1.365-2.048 2.389-4.437 3.755-6.827s2.389-4.779 3.755-6.827h0.683c1.024 2.048 2.048 4.437 3.072 6.827s2.048 4.779 3.072 6.827l7.851 15.36h19.456l-23.893-40.619 25.6-39.936h-20.48l-9.899 16.043c-1.365 2.389-2.731 4.779-4.096 7.168s-2.731 4.779-4.096 7.168h-0.683c-1.365-2.389-2.389-4.779-3.413-6.827-1.024-2.389-2.389-4.779-3.413-7.168l-8.533-16.043h-19.797l25.6 41.643zM588.117 54.101c-4.779 0-8.533 0.683-11.947 2.048-3.072 1.365-5.803 3.413-7.851 6.144s-3.413 5.461-4.437 9.216c-1.024 3.413-1.365 7.509-1.365 11.947v38.229h-11.605v13.995l12.288 0.683 2.389 21.845h15.701v-21.845h20.48v-15.019h-20.48v-38.229c0-9.557 3.755-13.995 11.264-13.995 1.365 0 2.731 0 4.437 0.341 1.365 0.341 2.731 0.683 4.096 1.365l3.413-13.995c-2.048-0.683-4.779-1.365-7.509-2.048-2.731-0.341-5.461-0.683-8.875-0.683zM348.16 857.6h358.4v-44.373h-358.4v44.373zM211.627 768.853h494.933v-44.373h-494.933v44.373zM211.627 680.107h494.933v-47.787h-494.933v47.787zM211.627 543.573v44.373h494.933v-44.373zM211.627 499.2h494.933v-44.373h-494.933v44.373zM211.627 410.453h494.933v-47.787h-494.933v47.787zM211.627 325.12h351.573v-44.373h-351.573v44.373z" />
<glyph unicode="&#xe634;" glyph-name="V117_Placeholder_RTF" horiz-adv-x="922" d="M348.16 857.6h358.4v-44.373h-358.4v44.373zM211.627 768.853h494.933v-44.373h-494.933v44.373zM211.627 680.107h494.933v-44.373h-494.933v44.373zM413.013 581.12v-221.867h293.547v221.867h-293.547zM682.667 383.147h-249.173v177.493h249.173v-177.493zM465.92 400.213h191.829l-21.845 91.477-21.845-9.899-18.432 32.085-53.931-80.555-32.085 21.163zM509.611 505.685c0-12.065-9.78-21.845-21.845-21.845s-21.845 9.78-21.845 21.845c0 12.065 9.78 21.845 21.845 21.845s21.845-9.78 21.845-21.845zM211.627 546.987v44.373h136.533v-44.373zM211.627 499.2h136.533v-44.373h-136.533v44.373zM211.627 410.453h136.533v-44.373h-136.533v44.373zM211.627 325.12h351.573v-44.373h-351.573v44.373zM388.779 22.016l-29.013 52.565h-20.48v-52.565h-23.893v133.803h45.397c6.827 0 13.312-0.683 19.456-2.048s11.264-3.755 15.701-6.827c4.437-3.072 7.851-7.168 10.24-12.288s3.755-11.264 3.755-18.773c0-10.24-2.389-18.432-7.168-24.917-4.779-6.144-11.264-10.923-19.456-13.653l32.085-55.979h-26.624zM339.285 93.355h19.115c9.216 0 16.043 2.048 21.163 5.803 4.779 3.755 7.168 9.557 7.168 17.067 0 7.851-2.389 13.312-7.168 16.043-4.779 3.072-11.947 4.437-21.163 4.437h-19.115v-43.349zM460.459 136.021h-38.571v20.139h101.035v-20.139h-38.571v-114.005h-23.893v114.005zM545.451 155.819h80.896v-20.139h-57.003v-37.888h48.469v-20.139h-48.811v-55.979h-23.893v134.144z" />
<glyph unicode="&#xe635;" glyph-name="V108_EditBatch" d="M636.646 740.992l-503.654-503.642-80.768-248.563 248.666 80.819 503.59 503.578-167.834 167.808zM248.474 210.394l-27.674 27.648 416.294 416.294 27.648-27.635-416.269-416.307zM693.603 797.978l110.459 110.491 167.827-167.78-110.459-110.491-167.827 167.78z" />
<glyph unicode="&#xe636;" glyph-name="V44_18_Delete" d="M635.733-61.156h118.044v28.444l-42.667 45.511-75.378-73.956zM88.178 22.756v637.156h219.022v213.333h358.4v-325.689l42.667-41.244 42.667 41.244v409.6h-531.911l-219.022-214.756v-806.4h453.689l-88.178 86.756h-277.333zM874.667-28.444l130.844 128-163.556 159.289 163.556 160.711-130.844 128-163.556-160.711-163.556 160.711-130.844-128 166.4-160.711-164.978-159.289 130.844-128 162.133 159.289 163.556-159.289zM402.489 462.222h-115.2v69.689h115.2zM398.222 310.044h-112.356c0 0 0 71.111 0 71.111h112.356zM398.222 159.289h-112.356c0 0 0 71.111 0 71.111h112.356zM166.4 496.356c0 19.911 15.644 35.556 35.556 35.556s35.556-15.644 35.556-35.556c0-19.911-15.644-35.556-35.556-35.556s-35.556 15.644-35.556 35.556zM166.4 345.6c0 19.911 15.644 35.556 35.556 35.556s35.556-15.644 35.556-35.556-15.644-35.556-35.556-35.556-35.556 15.644-35.556 35.556zM166.4 194.844c0 18.489 15.644 35.556 35.556 35.556s35.556-15.644 35.556-35.556-15.644-35.556-35.556-35.556-35.556 15.644-35.556 35.556z" />
<glyph unicode="&#xe637;" glyph-name="V47_33_Cut" d="M899.2 313.6c-60.8 60.8-134.4 92.8-195.2 92.8-9.6 0-19.2 0-28.8-3.2l-64 60.8 192 192c0 0 147.2 153.6 51.2 249.6l-342.4-339.2-339.2 339.2c-96-96 51.2-249.6 51.2-249.6l192-192-64-60.8c-9.6 0-19.2 3.2-28.8 3.2-64 0-137.6-32-195.2-92.8-96-96-121.6-227.2-57.6-291.2 22.4-22.4 54.4-32 89.6-32 64 0 137.6 32 195.2 92.8 70.4 70.4 102.4 153.6 89.6 224l64 64 64-64c-9.6-67.2 22.4-153.6 89.6-224 60.8-60.8 134.4-92.8 195.2-92.8 38.4 0 70.4 12.8 92.8 35.2 70.4 60.8 44.8 192-51.2 288v0zM291.2 147.2c-48-51.2-99.2-67.2-131.2-67.2-9.6 0-22.4 0-28.8 9.6-16 19.2-9.6 92.8 57.6 160 48 48 102.4 67.2 131.2 67.2 9.6 0 22.4 0 28.8-9.6 19.2-19.2 12.8-92.8-57.6-160zM892.8 89.6c-6.4-6.4-22.4-9.6-28.8-9.6-32 0-83.2 16-131.2 67.2-67.2 67.2-76.8 144-57.6 160 6.4 6.4 22.4 9.6 28.8 9.6 32 0 83.2-16 131.2-67.2 67.2-67.2 73.6-144 57.6-160z" />
<glyph unicode="&#xe638;" glyph-name="V48_Paste" d="M896 553.6h105.6l-105.6 102.4v-102.4zM848 512v150.4h-371.2v-726.4h521.6v576h-150.4zM678.4 851.2c-25.6 48-73.6 108.8-118.4 108.8h-329.6c-38.4 0-83.2-57.6-112-108.8h-92.8v-758.4h745.6v758.4c0 0-92.8 0-92.8 0zM278.4 912h233.6c16 0 28.8-12.8 28.8-25.6s-12.8-25.6-28.8-25.6h-233.6c-16 0-28.8 12.8-28.8 25.6s12.8 25.6 28.8 25.6zM643.2 176h-492.8v582.4h131.2c-9.6-16-12.8-32-12.8-38.4v-3.2c0-12.8 16-22.4 32-22.4h201.6c19.2 0 32 9.6 32 22.4v3.2c0 6.4-3.2 22.4-12.8 38.4h124.8l-3.2-582.4z" />
<glyph unicode="&#xe639;" glyph-name="V50_ChangeThumbnailSize" d="M160 490.653v-42.653h-160v404.702l101.676 106.994v0.303h250.324v-64.369l-36.407-0.047-4.055-4.514v26.277h-169.378v-107.275h-101.676v-319.419h119.516zM448 245.316v-53.316h-224v505.878l120.162 133.743v0.379h295.838v-64.48l-8.194-0.010-39.624-43v54.174h-200.174v-134.093h-120.162v-399.274h176.155zM1024 704v-768h-512v607.053l147.892 160.492v0.455h364.108zM965.146 640.020h-246.368v-160.912h-147.892v-479.129h394.26v640.041z" />
<glyph unicode="&#xe63a;" glyph-name="V51_28_CheckOut" d="M204.8 581.12c27.307 191.147 269.653 293.547 423.253 133.12l-51.2-51.2 238.933-6.827-6.827 238.933-51.2-51.2c-194.56 194.56-573.44 20.48-552.96-262.827zM819.2 151.040v436.907h-593.92v-686.080h341.333c112.64 0 252.587 146.773 252.587 249.173zM293.547-33.28v549.547h460.8v-358.4c0-102.4-129.707-64.853-129.707-64.853s37.547-126.293-58.027-126.293c-58.027 0-78.507 0-273.067 0z" />
<glyph unicode="&#xe63b;" glyph-name="V52_CheckIn" d="M812.095 614.4c-25.6 192-268.8 294.4-422.4 134.4v0l51.2-51.2-236.8-6.4 6.4 236.8 51.2-51.2c192 192 569.6 19.2 550.4-262.4v0zM819.2 185.6v435.2h-595.2v-684.8h339.2c115.2 0 256 147.2 256 249.6zM294.4 0v550.4h460.8v-358.4c0-102.4-128-64-128-64s38.4-128-57.6-128h-275.2z" />
<glyph unicode="&#xe63c;" glyph-name="V53_CancelCheckOut" d="M76.8 614.4c25.6 192 268.8 294.4 422.4 134.4v0l-51.2-51.2 236.8-6.4-6.4 236.8-51.2-51.2c-192 192-569.6 19.2-550.4-262.4v0zM441.849 0l52.547-52.537c-19.929-7.343-39.921-11.464-59.197-11.464h-339.2v684.8h595.2v-140.538l-64 64.010v6.127h-6.126l-20.11 20.113-20.113-20.113h-414.45v-550.4h275.2c0.083 0 0.166 0 0.249 0zM907.592 480l-153.316-153.341-153.316 153.341-120.96-120.96 153.341-153.341-153.341-153.341 120.96-120.935 153.316 153.316 153.316-153.316 120.96 120.935-153.316 153.341 153.316 153.341-120.96 120.96z" />
<glyph unicode="&#xe63d;" glyph-name="V54_26_RevHistory" d="M552.8 782.4v109.6h-392l-160.8-160.8v-604h225.6v-88.8h798.4v744h-471.2zM37.6 181.6v512h160.8v160.8h310.4v-672.8c0 0-471.2 0-471.2 0zM655.2 86.4h-385.6v37.6h283.2v614.4h102.4v-652zM829.6 86.4h-116v652h116v-652zM980 86.4h-102.4v652h102.4v-652z" />
<glyph unicode="&#xe63e;" glyph-name="V57_62_MergePDF" d="M440.32 659.627c23.893 20.48 34.133 34.133 54.613 61.44h160.427v-122.88l194.56 180.907-197.973 180.907v-122.88h-157.013c-20.48 20.48-37.547 37.547-58.027 58.027-30.72 27.307-71.68 51.2-116.053 51.2h-78.507v-85.333h78.507c13.653 0 27.307-6.827 44.373-20.48 20.48-13.653 37.547-30.72 58.027-51.2 6.827-6.827 13.653-13.653 13.653-20.48s-3.413-6.827-10.24-17.067c-20.48-20.48-37.547-37.547-58.027-51.2s-34.133-20.48-47.787-20.48h-78.507v-85.333h78.507c44.373 0 88.747 34.133 119.467 64.853zM822.613 427.52h-95.573v109.227h-392.533v-109.227h-95.573c-20.48 0-34.133-10.24-34.133-30.72v-266.24h129.707v-194.56h238.933l150.187 150.187v44.373h129.707v266.24c0 20.48-13.653 30.72-30.72 30.72zM372.053 499.2h310.613v-71.68h-310.613v71.68zM757.76 181.76h-30.72v71.68h-37.547v-122.88c0-58.027-129.707-27.307-129.707-27.307s27.307-129.707-27.307-129.707h-150.187v279.893h-47.787v-71.68h-37.547v122.88h460.8v-122.88zM795.307 342.187c-13.653 0-27.307 13.653-27.307 27.307s13.653 27.307 27.307 27.307 27.307-13.653 27.307-27.307-13.653-27.307-27.307-27.307z" />
<glyph unicode="&#xe63f;" glyph-name="V58_27_MailDoc" d="M1020.8 144c3.2 6.4 3.2 12.8 3.2 19.2v569.6c0 6.4 0 12.8-3.2 19.2l-332.8-284.8 332.8-323.2zM512 396.8l131.2 108.8 336 288c-6.4 3.2-12.8 3.2-16 3.2h-902.4c-6.4 0-12.8 0-16-3.2l336-288c0-3.2 131.2-108.8 131.2-108.8zM963.2 102.4c6.4 0 12.8 0 16 3.2l-336 323.2-131.2-105.6-131.2 105.6-336-323.2c6.4 0 9.6-3.2 16-3.2 0 0 902.4 0 902.4 0zM3.2 752c0-6.4-3.2-12.8-3.2-19.2v-569.6c0-6.4 0-12.8 3.2-19.2l332.8 320-332.8 288z" />
<glyph unicode="&#xe640;" glyph-name="V59_Export" d="M768 192h-640v384h83.2c44.8 48 102.4 89.6 172.8 121.6 6.4 3.2 9.6 3.2 16 6.4h-400v-640h896v320l-128-86.4v-105.6zM1024 572.8l-384 259.2v-153.6c0 0-441.6-35.2-441.6-361.6 0 0 54.4 134.4 268.8 160 35.2 3.2 89.6 9.6 172.8 9.6v-166.4l384 252.8z" />
<glyph unicode="&#xe641;" glyph-name="V60_22_ExportSyncplicity_b" d="M170.667 601.6h-92.16v266.24h484.693v-92.16h-392.533v-174.080zM866.987-64h-788.48v170.667h92.16v-78.507h607.573v378.88h88.747v-471.040zM979.627 704l-221.867 256-221.867-256h136.533v-245.76h163.84v245.76h143.36zM259.413 335.36c0 0 51.2 0 98.987 23.893 44.373 20.48 75.093 98.987 75.093 98.987s27.307-17.067 47.787-40.96c17.067-20.48 23.893-37.547 23.893-37.547s-27.307-68.267-95.573-105.813c-71.68-40.96-139.947-10.24-139.947-10.24s-6.827 6.827-10.24 34.133v37.547zM259.413 349.013c0 0 0 51.2-23.893 98.987-20.48 44.373-98.987 75.093-98.987 75.093s17.067 27.307 40.96 47.787c20.48 17.067 37.547 23.893 37.547 23.893s68.267-27.307 105.813-95.573c40.96-71.68 10.24-139.947 10.24-139.947s-6.827-6.827-34.133-10.24c-20.48 0-37.547 0-37.547 0zM245.76 349.013c0 0-51.2 0-98.987-23.893-44.373-20.48-75.093-98.987-75.093-98.987s-27.307 17.067-47.787 40.96c-17.067 20.48-23.893 37.547-23.893 37.547s27.307 68.267 95.573 105.813c71.68 40.96 139.947 10.24 139.947 10.24s6.827-6.827 10.24-34.133c3.413-20.48 0-37.547 0-37.547zM245.76 335.36c0 0 0-51.2 23.893-98.987 20.48-44.373 98.987-75.093 98.987-75.093s-17.067-27.307-40.96-47.787c-20.48-17.067-37.547-23.893-37.547-23.893s-68.267 27.307-105.813 95.573c-40.96 71.68-10.24 139.947-10.24 139.947s6.827 6.827 34.133 10.24c20.48 0 37.547 0 37.547 0z" />
<glyph unicode="&#xe642;" glyph-name="V61_21_ImportSyncplicity" d="M201.4 605h-92.2v262.8h488.1v-85.3h-395.9v-177.5zM904.5-64h-795.3v163.8h92.2v-78.5h611v385.7h92.2l-0.1-471zM1017.2 717.7l-225.3-262.9-221.9 262.9h136.5v242.3h163.8v-242.3h146.9zM307.2 335.4c0 0 51.2 0 99 23.9 44.4 20.5 75.1 99 75.1 99s27.3-17.1 47.8-41c17.1-20.5 23.9-37.5 23.9-37.5s-27.3-68.3-95.6-105.8c-71.7-41-139.9-10.2-139.9-10.2s-6.8 6.8-10.2 34.1c-3.5 20.4-0.1 37.5-0.1 37.5v0zM307.2 349c0 0 0 51.2-23.9 99-20.5 44.4-99 75.1-99 75.1s17.1 27.3 41 47.8c20.5 17.1 37.5 23.9 37.5 23.9s68.3-27.3 105.8-95.6c41-71.7 10.2-139.9 10.2-139.9s-6.8-6.8-34.1-10.2c-20.4-0.1-37.5-0.1-37.5-0.1v0zM293.5 349c0 0-51.2 0-99-23.9-44.4-20.5-75.1-99-75.1-99s-27.3 17.1-47.8 41c-17.1 20.5-23.9 37.5-23.9 37.5s27.3 68.3 95.6 105.8c71.7 41 139.9 10.2 139.9 10.2s6.8-6.8 10.2-34.1c0.1-20.4 0.1-37.5 0.1-37.5v0zM293.5 335.4c0 0 0-51.2 23.9-99 20.5-44.4 99-75.1 99-75.1s-17.1-27.3-41-47.8c-20.5-17.1-37.5-23.9-37.5-23.9s-68.3 27.3-105.8 95.6c-41 71.7-10.2 139.9-10.2 139.9s6.8 6.8 34.1 10.2c20.5 0.1 37.5 0.1 37.5 0.1v0z" />
<glyph unicode="&#xe643;" glyph-name="V62_25_CopyMovePage" d="M745.6 585.6v172.8h-422.4v-822.4h595.2v649.6h-172.8zM780.8 627.2h118.4l-118.4 118.4v-118.4zM595.2 838.4h118.4l-118.4 121.6v-121.6zM230.4 742.4v96h316.8v121.6h-441.6v-899.2h182.4v108.8h-57.6v572.8z" />
<glyph unicode="&#xe644;" glyph-name="V64_SubmitFullText" d="M880 956.8v-1017.6h-736v803.2l214.4 211.2c-3.2 3.2 521.6 3.2 521.6 3.2zM796.8 873.6h-355.2v-214.4h-214.4v-636.8h569.6c0 0 0 851.2 0 851.2zM547.2 294.4h-160l-19.2-44.8c-6.4-16-9.6-25.6-9.6-35.2 0-12.8 6.4-22.4 16-28.8 6.4-3.2 19.2-6.4 44.8-6.4v-12.8h-150.4v12.8c16 3.2 28.8 9.6 38.4 19.2s22.4 32 38.4 67.2l160 358.4h6.4l166.4-368c16-35.2 28.8-57.6 38.4-67.2 6.4-6.4 19.2-9.6 32-12.8v-12.8h-217.6v12.8h9.6c16 0 28.8 3.2 38.4 6.4 6.4 3.2 6.4 9.6 6.4 16 0 3.2 0 9.6-3.2 12.8 0 3.2-3.2 9.6-9.6 25.6l-25.6 57.6zM534.4 320l-67.2 153.6-67.2-153.6h134.4z" />
<glyph unicode="&#xe645;" glyph-name="V65_34_Document_Properties" d="M806.4 886.4h-44.8v28.8c0 22.4-19.2 38.4-38.4 38.4-22.4 0-38.4-19.2-38.4-38.4v-28.8h-131.2v28.8c0 22.4-19.2 38.4-38.4 38.4-22.4 0-38.4-19.2-38.4-38.4v-28.8h-131.2v28.8c0 22.4-19.2 38.4-38.4 38.4s-44.8-16-44.8-38.4v-28.8h-44.8c-44.8 0-80-35.2-80-80v-784c0-44.8 35.2-80 80-80h588.8c44.8 0 80 35.2 80 80v784c0 44.8-35.2 80-80 80zM806.4 28.8h-588.8v771.2h44.8v-25.6c0-22.4 19.2-38.4 38.4-38.4s38.4 19.2 38.4 38.4v25.6h131.2v-25.6c0-22.4 19.2-38.4 38.4-38.4s38.4 19.2 38.4 38.4v25.6h131.2v-25.6c0-22.4 19.2-38.4 38.4-38.4 22.4 0 38.4 19.2 38.4 38.4v25.6h44.8l6.4-771.2zM300.8 630.4h419.2v-54.4h-419.2v54.4zM300.8 486.4h419.2v-54.4h-419.2v54.4zM300.8 342.4h419.2v-54.4h-419.2v54.4zM300.8 198.4h419.2v-54.4h-419.2v54.4z" />
<glyph unicode="&#xe646;" glyph-name="V66_NewPage" d="M524.8 22.4h-438.4v640h214.4v211.2h358.4v-211.2h86.4v297.6h-531.2l-214.4-214.4v-809.6h524.8v86.4zM793.6 576h-182.4v-230.4h-230.4v-182.4h230.4v-227.2h182.4v230.4h230.4v182.4h-230.4v227.2z" />
<glyph unicode="&#xe647;" glyph-name="V67_ReplacePage" d="M310.4 412.8c-25.6 0-44.8 3.2-64 3.2-6.4 0-16 3.2-22.4 3.2v326.4l214.4 214.4h524.8v-1024h-736v278.4c25.6-9.6 51.2-16 80-19.2 3.2 0 3.2 0 6.4 0v-169.6h566.4v848h-355.2v-214.4h-214.4v-246.4zM355.2 128v105.6c0 0-294.4 22.4-294.4 246.4 0 0 38.4-92.8 179.2-108.8 22.4-3.2 57.6-6.4 115.2-6.4v115.2l256-176c0 0-256-176-256-176z" />
<glyph unicode="&#xe648;" glyph-name="V71_NewVersion" d="M524.8 25.6h-435.2v634.311h214.756v210.489h358.4v-211.911h86.756v298.667h-531.911l-214.756-214.756v-803.556h521.956v86.756zM790.756 576h-182.044v-227.556h-230.4v-179.2h230.4v-227.556h182.044v227.556h230.4v179.2h-230.4v227.556zM271.644 521.956h281.6v-69.689h-281.6v69.689zM271.644 371.2h66.844v-71.111h-66.844v71.111zM271.644 220.444h66.844v-71.111h-66.844v71.111zM224.711 486.4c0-19.911-15.644-35.556-35.556-35.556s-35.556 15.644-35.556 35.556c0 19.911 15.644 35.556 35.556 35.556s35.556-15.644 35.556-35.556zM224.711 335.644c0-19.911-15.644-35.556-35.556-35.556s-35.556 15.644-35.556 35.556 15.644 35.556 35.556 35.556 35.556-15.644 35.556-35.556zM224.711 184.889c0-19.911-15.644-35.556-35.556-35.556s-35.556 15.644-35.556 35.556c0 18.489 15.644 35.556 35.556 35.556s35.556-15.644 35.556-35.556z" />
<glyph unicode="&#xe649;" glyph-name="V73_30_Clear_versions" d="M635.733-61.156h118.044v28.444l-42.667 45.511-75.378-73.956zM88.178 22.756v637.156h219.022v213.333h358.4v-325.689l42.667-41.244 42.667 41.244v409.6h-531.911l-219.022-214.756v-806.4h453.689l-88.178 86.756h-277.333zM874.667-28.444l130.844 128-163.556 159.289 163.556 160.711-130.844 128-163.556-160.711-163.556 160.711-130.844-128 166.4-160.711-164.978-159.289 130.844-128 162.133 159.289 163.556-159.289zM402.489 462.222h-115.2v69.689h115.2zM398.222 310.044h-112.356c0 0 0 71.111 0 71.111h112.356zM398.222 159.289h-112.356c0 0 0 71.111 0 71.111h112.356zM166.4 496.356c0 19.911 15.644 35.556 35.556 35.556s35.556-15.644 35.556-35.556c0-19.911-15.644-35.556-35.556-35.556s-35.556 15.644-35.556 35.556zM166.4 345.6c0 19.911 15.644 35.556 35.556 35.556s35.556-15.644 35.556-35.556-15.644-35.556-35.556-35.556-35.556 15.644-35.556 35.556zM166.4 194.844c0 18.489 15.644 35.556 35.556 35.556s35.556-15.644 35.556-35.556-15.644-35.556-35.556-35.556-35.556 15.644-35.556 35.556z" />
<glyph unicode="&#xe64a;" glyph-name="V74_ApplyDigitalSignature" d="M288 251.857l83-82.96c90.6 82.558 194.672 116.256 246.788 79.944l216.709 293.033-174.847 174.807-293.355-215.905c38.806-51.392 5.429-157.032-78.295-248.92zM537.845 349.535c-19.101-19.101-50.106-19.101-69.247 0-19.101 19.101-19.101 50.146 0 69.207 19.141 19.101 50.146 19.101 69.247 0 19.101-19.061 19.101-50.106 0-69.207zM919.548 1056l-255.474-255.515 255.474-255.555 255.555 255.555-255.555 255.515zM-224 192h448l64-64h-512v64z" />
<glyph unicode="&#xe64b;" glyph-name="V75_DigitalSignatureHistory" d="M256 283.872l83.008-82.976c90.592 82.56 194.688 116.256 246.784 79.936l216.704 293.024-174.848 174.816-293.344-215.904c38.816-51.392 5.44-157.024-78.304-248.928zM505.856 381.536c-19.104-19.104-50.112-19.104-69.248 0-19.104 19.104-19.104 50.144 0 69.216 19.136 19.104 50.144 19.104 69.248 0 19.104-19.072 19.104-50.112 0-69.216zM887.552 1088l-255.488-255.52 255.488-255.552 255.552 255.552-255.552 255.52zM-256 224h448l64-64h-512v64zM1023.328-96c-24.224 178.784-254.368 274.144-399.712 125.152v0l48.448-47.68-224.064-5.952 6.048 220.512 48.448-47.68c181.696 178.784 539.008 17.888 520.832-244.352v0z" />
<glyph unicode="&#xe64c;" glyph-name="V76_TextView" d="M876.8 256.050v-40.248c0-6.708 0-6.708-3.013-13.416 0-6.708-3.013-6.708-6.026-6.708h-259.098c-3.013 0-3.013 0-6.026 6.708s-3.013 6.708-3.013 13.416v40.248c0 6.708 0 6.708 3.013 13.416s3.013 6.708 6.026 6.708h259.098c3.013 0 3.013 0 6.026-6.708s3.013-13.416 3.013-13.416v0zM876.8 403.627v-40.248c0-6.708 0-6.708-3.013-13.416s-3.013-6.708-6.026-6.708h-259.098c-3.013 0-3.013 0-6.026 6.708s-3.013 6.708-3.013 13.416v40.248c0 6.708 0 6.708 3.013 13.416s3.013 6.708 6.026 6.708h259.098c3.013 0 3.013 0 6.026-6.708 3.013 0 3.013-6.708 3.013-13.416v0zM876.8 557.913v-40.248c0-6.708 0-6.708-3.013-13.416s-3.013-6.708-6.026-6.708h-259.098c-3.013 0-3.013 0-6.026 6.708s-3.013 6.708-3.013 13.416v40.248c0 6.708 0 6.708 3.013 13.416s3.013 6.708 6.026 6.708h259.098c3.013 0 3.013 0 6.026-6.708 3.013 0 3.013-6.708 3.013-13.416v0zM1024 142.012c0-26.832-6.4-46.957-25.6-67.081s-38.4-26.832-64-26.832h-844.8c-25.6 0-44.8 6.708-64 26.832s-25.6 40.248-25.6 67.081v650.683c0 26.832 6.4 46.957 25.6 67.081s38.4 26.832 64 26.832h838.4c25.6 0 44.8-6.708 64-26.832 25.6-20.124 32-40.248 32-67.081v-650.683zM953.6 135.304v496.398c0 6.708 0 6.708-6.4 13.416s-6.4 6.708-12.8 6.708h-844.8c-6.4 0-6.4 0-12.8-6.708s-6.4-6.708-6.4-13.416v-496.398c0-6.708 0-6.708 6.4-13.416s6.4-6.708 12.8-6.708h838.4c6.4 0 6.4 0 12.8 6.708s12.8 13.416 12.8 13.416v0zM501.363 227.11h10.637v-31.91h-132.958v31.91h10.637c10.637 0 15.955 10.637 10.637 15.955l-10.637 53.183h-127.639l-15.955-47.865c-5.318-10.637 5.318-15.955 10.637-15.955h10.637v-37.228h-132.958v31.91h10.637c10.637 0 21.273 5.318 26.592 21.273l111.685 313.78h79.775l111.685-313.78c5.318-10.637 15.955-21.273 26.592-21.273v0zM283.313 354.749h85.093l-42.546 127.639-42.546-127.639z" />
<glyph unicode="&#xe64d;" glyph-name="V77_38_ImageInfo" d="M355.2 960l-252.8-245.6v-778.4h836v1024h-583.2zM840 38.4h-642.4v614.4h215.2v215.2h427.2v-829.6zM550.4 615.2c35.2 0 61.6 27.2 61.6 60 0 34.4-26.4 60-60.8 60-32.8 0-60.8-25.6-60.8-60 0-32 28-60 60-60zM612 270.4v303.2c-48-13.6-104.8-24.8-156-31.2v-36.8c40.8-7.2 47.2-9.6 47.2-66.4v-169.6c0-60.8-4.8-64-55.2-70.4v-39.2h219.2v40c-51.2 6.4-55.2 11.2-55.2 70.4z" />
<glyph unicode="&#xe64e;" glyph-name="V7_03_FittoWidth" d="M908 844v-802.4h-792v802.4h792zM1024 960h-1024v-1024h1024v1024zM894.4 448l-188 167.2v-105.6h-388.8v105.6l-184.8-167.2 184-167.2v105.6h388.8v-105.6l188.8 167.2z" />
<glyph unicode="&#xe64f;" glyph-name="V80_NewIndex" d="M394.972 294.857v-57.143h-316.572c-22.4 0-39.2 5.714-56 22.857s-22.4 34.286-22.4 57.143v554.286c0 22.857 5.6 40 22.4 57.143s33.6 22.857 56 22.857h733.6c22.4 0 39.2-5.714 56-22.857 22.4-17.143 28-34.286 28-57.143v-312h-61.6v174.857c0 5.714 0 5.714-5.6 11.429s-5.6 5.714-11.2 5.714h-739.2c-5.6 0-5.6 0-11.2-5.714s-5.6-5.714-5.6-11.429v-422.857c0-5.714 0-5.714 5.6-11.429s5.6-5.714 11.2-5.714h316.572zM190.4 414.857v-34.286c0-5.714 0-5.714-5.6-11.429 0-5.714-5.6-5.714-11.2-5.714h-33.6c-5.6 0-5.6 0-11.2 5.714s-5.6 5.714-5.6 11.429v34.286c0 5.714 0 5.714 5.6 11.429s5.6 5.714 11.2 5.714h33.6c5.6 0 5.6 0 11.2-5.714s5.6-11.429 5.6-11.429v0zM190.4 540.571v-34.286c0-5.714 0-5.714-5.6-11.429s-5.6-5.714-11.2-5.714h-33.6c-5.6 0-5.6 0-11.2 5.714s-5.6 5.714-5.6 11.429v34.286c0 5.714 0 5.714 5.6 11.429s5.6 5.714 11.2 5.714h33.6c5.6 0 5.6 0 11.2-5.714 5.6 0 5.6-5.714 5.6-11.429v0zM190.4 672v-34.286c0-5.714 0-5.714-5.6-11.429s-5.6-5.714-11.2-5.714h-33.6c-5.6 0-5.6 0-11.2 5.714s-5.6 5.714-5.6 11.429v34.286c0 5.714 0 5.714 5.6 11.429s5.6 5.714 11.2 5.714h33.6c5.6 0 5.6 0 11.2-5.714 5.6 0 5.6-5.714 5.6-11.429v0zM591.839 363.429h-323.039c-5.6 0-5.6 0-11.2 5.714s-5.6 5.714-5.6 11.429v34.286c0 5.714 0 5.714 5.6 11.429s5.6 5.714 11.2 5.714h323.039v-68.571zM591.839 489.143h-323.039c-5.6 0-5.6 0-11.2 5.714s-5.6 5.714-5.6 11.429v34.286c0 5.714 0 5.714 5.6 11.429s5.6 5.714 11.2 5.714h323.039v-68.571zM767.2 672v-34.286c0-5.714 0-5.714-5.6-11.429s-5.6-5.714-11.2-5.714h-481.6c-5.6 0-5.6 0-11.2 5.714s-5.6 5.714-5.6 11.429v34.286c0 5.714 0 5.714 5.6 11.429s5.6 5.714 11.2 5.714h481.6c5.6 0 5.6 0 11.2-5.714 5.6 0 5.6-5.714 5.6-11.429v0zM827.133 480h-155.295v-196.892h-196.867v-155.32h196.867v-196.842h155.295v196.842h196.867v155.32h-196.867v196.892z" />
<glyph unicode="&#xe650;" glyph-name="V82_ShowAllIndexes" d="M364.8 355.2c-6.4 6.4-6.4 6.4-9.6 6.4h-32c-6.4 0-6.4 0-9.6-6.4-6.4-6.4-6.4-6.4-6.4-9.6v-32c0-6.4 0-6.4 6.4-9.6 6.4-6.4 6.4-6.4 9.6-6.4h32c6.4 0 6.4 0 9.6 6.4 6.4 6.4 6.4 6.4 6.4 9.6v32c-3.2 3.2-3.2 9.6-6.4 9.6zM352 124.8h-32c-6.4 0-6.4 0-9.6-6.4-6.4-6.4-6.4-6.4-6.4-9.6v-32c0-6.4 0-6.4 6.4-9.6s6.4-3.2 12.8-3.2h32c6.4 0 9.6 0 9.6 6.4 6.4 6.4 6.4 6.4 6.4 9.6v32c0 0 0 6.4-6.4 9.6s-6.4 3.2-12.8 3.2zM364.8 236.8c-6.4 6.4-6.4 6.4-9.6 6.4h-32c-6.4 0-6.4 0-9.6-6.4-6.4-6.4-6.4-6.4-6.4-9.6v-32c0-6.4 0-6.4 6.4-9.6 6.4-6.4 6.4-6.4 9.6-6.4h32c6.4 0 6.4 0 9.6 6.4 6.4 6.4 6.4 6.4 6.4 9.6v32c-3.2 3.2-3.2 9.6-6.4 9.6zM889.6 124.8h-448c-6.4 0-6.4 0-9.6-6.4-6.4-6.4-6.4-6.4-6.4-9.6v-32c0-6.4 0-6.4 6.4-9.6 6.4-6.4 6.4-6.4 9.6-6.4h448c6.4 0 9.6 0 9.6 6.4 6.4 6.4 6.4 6.4 6.4 9.6v32c0 0 0 6.4-6.4 9.6-6.4 6.4-6.4 6.4-9.6 6.4zM998.4 579.2c-16 16-32 22.4-51.2 22.4h-681.6c-22.4 0-35.2-6.4-51.2-22.4s-22.4-32-22.4-51.2v-505.6c0-22.4 6.4-38.4 22.4-54.4s32-22.4 51.2-22.4h684.8c22.4 0 35.2 6.4 51.2 22.4s22.4 32 22.4 51.2v508.8c0 19.2-6.4 35.2-25.6 51.2zM966.4 16c0 0-6.4-6.4-9.6-9.6-6.4-6.4-6.4-6.4-9.6-6.4h-681.6c-6.4 0-6.4 0-9.6 6.4-6.4 6.4-6.4 6.4-6.4 9.6v387.2c0 6.4 0 6.4 6.4 9.6 6.4 6.4 6.4 6.4 9.6 6.4h684.8c6.4 0 6.4 0 9.6-6.4 6.4-6.4 6.4-6.4 6.4-9.6v-387.2zM899.2 236.8c-6.4 6.4-6.4 6.4-9.6 6.4h-448c-6.4 0-6.4 0-9.6-6.4-6.4-6.4-6.4-6.4-6.4-9.6v-32c0-6.4 0-6.4 6.4-9.6 6.4-6.4 6.4-6.4 9.6-6.4h448c6.4 0 6.4 0 9.6 6.4 6.4 6.4 6.4 6.4 6.4 9.6v32c0 3.2 0 9.6-6.4 9.6zM899.2 355.2c-6.4 6.4-6.4 6.4-9.6 6.4h-448c-6.4 0-6.4 0-9.6-6.4-6.4-6.4-6.4-6.4-6.4-9.6v-32c0-6.4 0-6.4 6.4-9.6 6.4-6.4 6.4-6.4 9.6-6.4h448c6.4 0 6.4 0 9.6 6.4 6.4 6.4 6.4 6.4 6.4 9.6v32c0 3.2 0 9.6-6.4 9.6zM118.4 473.6c-6.4-6.4-6.4-6.4-6.4-9.6v-32c0-6.4 0-6.4 6.4-9.6 6.4-6.4 6.4-6.4 12.8-6.4h12.8v64h-12.8c-6.4-3.2-6.4-3.2-12.8-6.4zM697.6 713.6h-448c-6.4 0-6.4 0-9.6-6.4-6.4-6.4-6.4-6.4-6.4-9.6v-32c0-6.4 0-6.4 6.4-9.6 6.4-6.4 6.4-6.4 9.6-6.4h448c6.4 0 6.4 0 9.6 6.4 6.4 6.4 6.4 6.4 6.4 9.6v32c0 6.4 0 9.6-6.4 9.6-6.4 6.4-6.4 6.4-9.6 6.4zM64 358.4c-6.4 6.4-6.4 6.4-6.4 9.6v387.2c0 6.4 0 6.4 6.4 9.6 6.4 6.4 6.4 6.4 9.6 6.4h684.8c6.4 0 6.4 0 9.6-6.4 6.4-6.4 6.4-6.4 6.4-9.6v-105.6h57.6v230.4c0 22.4-6.4 35.2-25.6 51.2-16 16-32 22.4-51.2 22.4h-681.6c-22.4 0-35.2-6.4-51.2-22.4s-22.4-32-22.4-51.2v-505.6c0-22.4 6.4-38.4 22.4-54.4s32-22.4 51.2-22.4h70.4v54.4h-70.4c-6.4 0-6.4 0-9.6 6.4zM172.8 707.2c-6.4 6.4-6.4 6.4-12.8 6.4h-32c-6.4 0-6.4 0-9.6-6.4s-3.2-6.4-3.2-9.6v-32c0-6.4 0-6.4 6.4-9.6 6.4-6.4 6.4-6.4 9.6-6.4h32c6.4 0 6.4 0 9.6 6.4 6.4 6.4 6.4 6.4 6.4 9.6v32c-3.2 3.2-3.2 9.6-6.4 9.6zM131.2 592c-6.4 0-6.4 0-9.6-6.4-6.4-6.4-6.4-6.4-6.4-9.6v-32c0-6.4 0-6.4 6.4-9.6 6.4-6.4 6.4-6.4 9.6-6.4h12.8c0 22.4 6.4 44.8 19.2 64 0 0 0 0 0 0h-32z" />
<glyph unicode="&#xe651;" glyph-name="V83_EditIndexes" d="M636.646 740.992l-503.654-503.642-80.768-248.563 248.666 80.819 503.59 503.578-167.834 167.808zM248.474 210.394l-27.674 27.648 416.294 416.294 27.648-27.635-416.269-416.307zM693.603 797.978l110.459 110.491 167.827-167.78-110.459-110.491-167.827 167.78z" />
<glyph unicode="&#xe652;" glyph-name="V84_36_UndoEditIndexes" d="M858.911 94.494l83.519 86.814-105.498 109.895 105.498 109.895-83.519 86.814-106.595-109.895-105.498 109.895-83.519-86.814 105.498-109.895-105.498-109.895 83.519-86.814 105.498 109.895zM585.276 740.669l-431.882-431.882-69.231-213.193 213.193 69.231 431.882 431.882-143.96 143.96zM252.297 285.71l-24.177 24.177 357.154 357.154 24.177-24.177-357.154-357.154zM634.17 789.598l94.788 94.816 143.778-143.735-94.788-94.816-143.778 143.735z" />
<glyph unicode="&#xe653;" glyph-name="V86_AutoIndexfromAllIndexes" d="M896 478.255h-320.008v-18.324c-19.45 12.691-42.665 20.069-67.628 20.069-68.83 0-124.365-56.096-124.365-124.975 0-34.126 13.624-65.107 35.74-87.686-8.542-8.723-15.817-18.699-21.53-29.625h-319.811c-22.4 0-39.2 5.714-56 22.857s-22.4 34.286-22.4 57.143v554.286c0 22.857 5.6 40 22.4 57.143s33.6 22.857 56 22.857h733.6c22.4 0 39.2-5.714 56-22.857 22.4-17.143 28-34.286 28-57.143v-393.745zM834.4 478.255v256.603c0 5.714 0 5.714-5.6 11.429s-5.6 5.714-11.2 5.714h-739.2c-5.6 0-5.6 0-11.2-5.714s-5.6-5.714-5.6-11.429v-422.857c0-5.714 0-5.714 5.6-11.429s5.6-5.714 11.2-5.714h320.935c-9.778 17.86-15.335 38.373-15.335 60.168 0 68.879 55.535 124.975 124.365 124.975 24.963 0 48.177-7.378 67.628-20.069v0 18.324h258.408zM190.4 414.857v-34.286c0-5.714 0-5.714-5.6-11.429 0-5.714-5.6-5.714-11.2-5.714h-33.6c-5.6 0-5.6 0-11.2 5.714s-5.6 5.714-5.6 11.429v34.286c0 5.714 0 5.714 5.6 11.429s5.6 5.714 11.2 5.714h33.6c5.6 0 5.6 0 11.2-5.714s5.6-11.429 5.6-11.429v0zM190.4 540.571v-34.286c0-5.714 0-5.714-5.6-11.429s-5.6-5.714-11.2-5.714h-33.6c-5.6 0-5.6 0-11.2 5.714s-5.6 5.714-5.6 11.429v34.286c0 5.714 0 5.714 5.6 11.429s5.6 5.714 11.2 5.714h33.6c5.6 0 5.6 0 11.2-5.714 5.6 0 5.6-5.714 5.6-11.429v0zM190.4 672v-34.286c0-5.714 0-5.714-5.6-11.429s-5.6-5.714-11.2-5.714h-33.6c-5.6 0-5.6 0-11.2 5.714s-5.6 5.714-5.6 11.429v34.286c0 5.714 0 5.714 5.6 11.429s5.6 5.714 11.2 5.714h33.6c5.6 0 5.6 0 11.2-5.714 5.6 0 5.6-5.714 5.6-11.429v0zM384.277 363.429h-115.477c-5.6 0-5.6 0-11.2 5.714s-5.6 5.714-5.6 11.429v34.286c0 5.714 0 5.714 5.6 11.429s5.6 5.714 11.2 5.714h141.585c-14.929-19.169-24.404-42.819-26.108-68.571zM767.2 540.571v-34.286c0-5.714 0-5.714-5.6-11.429s-5.6-5.714-11.2-5.714h-481.6c-5.6 0-5.6 0-11.2 5.714s-5.6 5.714-5.6 11.429v34.286c0 5.714 0 5.714 5.6 11.429s5.6 5.714 11.2 5.714h481.6c5.6 0 5.6 0 11.2-5.714 5.6 0 5.6-5.714 5.6-11.429v0zM767.2 672v-34.286c0-5.714 0-5.714-5.6-11.429s-5.6-5.714-11.2-5.714h-481.6c-5.6 0-5.6 0-11.2 5.714s-5.6 5.714-5.6 11.429v34.286c0 5.714 0 5.714 5.6 11.429s5.6 5.714 11.2 5.714h481.6c5.6 0 5.6 0 11.2-5.714 5.6 0 5.6-5.714 5.6-11.429v0zM639.992 297.798h372.211v116.457h-372.211v-116.457zM639.992 114.176h372.211v116.48h-372.211v-116.48zM639.992-69.423h372.211v116.457h-372.211v-116.457zM508.365 416c-33.339 0-60.365-27.299-60.365-60.975 0-33.699 27.026-60.975 60.365-60.975s60.365 27.276 60.365 60.975c0 33.676-27.026 60.975-60.365 60.975v0zM508.365 240.64c-33.339 0-60.365-27.299-60.365-60.998 0-33.652 27.026-60.951 60.365-60.951s60.365 27.299 60.365 60.951c0 33.699-27.026 60.998-60.365 60.998v0zM508.365 52.969c-33.339 0-60.365-27.276-60.365-60.951s27.026-60.975 60.365-60.975c33.339 0 60.365 27.299 60.365 60.975s-27.026 60.951-60.365 60.951v0z" />
<glyph unicode="&#xe654;" glyph-name="V87_AutoIndexfromallDocumentIndexes" d="M544 294.857v-57.143h-465.6c-22.4 0-39.2 5.714-56 22.857s-22.4 34.286-22.4 57.143v554.286c0 22.857 5.6 40 22.4 57.143s33.6 22.857 56 22.857h733.6c22.4 0 39.2-5.714 56-22.857 22.4-17.143 28-34.286 28-57.143v-296.119l-61.6-0.073v159.048c0 5.714 0 5.714-5.6 11.429s-5.6 5.714-11.2 5.714h-739.2c-5.6 0-5.6 0-11.2-5.714s-5.6-5.714-5.6-11.429v-422.857c0-5.714 0-5.714 5.6-11.429s5.6-5.714 11.2-5.714h465.6zM190.4 414.857v-34.286c0-5.714 0-5.714-5.6-11.429 0-5.714-5.6-5.714-11.2-5.714h-33.6c-5.6 0-5.6 0-11.2 5.714s-5.6 5.714-5.6 11.429v34.286c0 5.714 0 5.714 5.6 11.429s5.6 5.714 11.2 5.714h33.6c5.6 0 5.6 0 11.2-5.714s5.6-11.429 5.6-11.429v0zM190.4 540.571v-34.286c0-5.714 0-5.714-5.6-11.429s-5.6-5.714-11.2-5.714h-33.6c-5.6 0-5.6 0-11.2 5.714s-5.6 5.714-5.6 11.429v34.286c0 5.714 0 5.714 5.6 11.429s5.6 5.714 11.2 5.714h33.6c5.6 0 5.6 0 11.2-5.714 5.6 0 5.6-5.714 5.6-11.429v0zM190.4 672v-34.286c0-5.714 0-5.714-5.6-11.429s-5.6-5.714-11.2-5.714h-33.6c-5.6 0-5.6 0-11.2 5.714s-5.6 5.714-5.6 11.429v34.286c0 5.714 0 5.714 5.6 11.429s5.6 5.714 11.2 5.714h33.6c5.6 0 5.6 0 11.2-5.714 5.6 0 5.6-5.714 5.6-11.429v0zM544 363.429h-275.2c-5.6 0-5.6 0-11.2 5.714s-5.6 5.714-5.6 11.429v34.286c0 5.714 0 5.714 5.6 11.429s5.6 5.714 11.2 5.714h284l-8.8-8.99v-59.581zM608.733 489.143h-339.933c-5.6 0-5.6 0-11.2 5.714s-5.6 5.714-5.6 11.429v34.286c0 5.714 0 5.714 5.6 11.429s5.6 5.714 11.2 5.714h407.053l-67.12-68.571zM767.2 672v-34.286c0-5.714 0-5.714-5.6-11.429s-5.6-5.714-11.2-5.714h-481.6c-5.6 0-5.6 0-11.2 5.714s-5.6 5.714-5.6 11.429v34.286c0 5.714 0 5.714 5.6 11.429s5.6 5.714 11.2 5.714h481.6c5.6 0 5.6 0 11.2-5.714 5.6 0 5.6-5.714 5.6-11.429v0zM738.502 509.395v-0.326l-112.344-114.774v-434.129h388.96v549.229h-276.616zM970.409 5.921h-299.593v342.645h112.369v115.075h187.224v-457.72zM767.622 279.822h169.557v-38.116h-169.557v38.116zM767.622 198.756h169.557v-38.141h-169.557v38.141zM767.622 117.19h169.557v-38.091h-169.557v38.091zM723.672 279.822c-10.229 0-18.549-8.515-18.549-19.033s8.32-19.033 18.549-19.033c10.302 0 18.598 8.515 18.598 19.033s-8.296 19.033-18.598 19.033zM723.672 198.831c-10.229 0-18.549-8.515-18.549-19.008 0-10.543 8.32-19.033 18.549-19.033 10.302 0 18.598 8.49 18.598 19.033 0 10.493-8.296 19.008-18.598 19.008zM723.672 117.515c-10.229 0-18.549-8.54-18.549-19.058 0-10.468 8.32-19.033 18.549-19.033 10.302 0 18.598 8.565 18.598 19.033 0 10.518-8.296 19.058-18.598 19.058z" />
<glyph unicode="&#xe655;" glyph-name="V88_AutofillfromLastDoc" d="M896 530.018v341.982c0 22.857-5.6 40-28 57.143-16.8 17.143-33.6 22.857-56 22.857h-733.6c-22.4 0-39.2-5.714-56-22.857s-22.4-34.286-22.4-57.143v-554.286c0-22.857 5.6-40 22.4-57.143s33.6-22.857 56-22.857h337.6v57.143h-337.6c-5.6 0-5.6 0-11.2 5.714s-5.6 5.714-5.6 11.429v422.857c0 5.714 0 5.714 5.6 11.429s5.6 5.714 11.2 5.714h739.2c5.6 0 5.6 0 11.2-5.714s5.6-5.714 5.6-11.429v-204.839h61.6zM800.107 283.176l-14.395 11.681h14.395v-11.681zM190.4 414.857v-34.286c0-5.714 0-5.714-5.6-11.429 0-5.714-5.6-5.714-11.2-5.714h-33.6c-5.6 0-5.6 0-11.2 5.714s-5.6 5.714-5.6 11.429v34.286c0 5.714 0 5.714 5.6 11.429s5.6 5.714 11.2 5.714h33.6c5.6 0 5.6 0 11.2-5.714s5.6-11.429 5.6-11.429v0zM190.4 540.571v-34.286c0-5.714 0-5.714-5.6-11.429s-5.6-5.714-11.2-5.714h-33.6c-5.6 0-5.6 0-11.2 5.714s-5.6 5.714-5.6 11.429v34.286c0 5.714 0 5.714 5.6 11.429s5.6 5.714 11.2 5.714h33.6c5.6 0 5.6 0 11.2-5.714 5.6 0 5.6-5.714 5.6-11.429v0zM190.4 672v-34.286c0-5.714 0-5.714-5.6-11.429s-5.6-5.714-11.2-5.714h-33.6c-5.6 0-5.6 0-11.2 5.714s-5.6 5.714-5.6 11.429v34.286c0 5.714 0 5.714 5.6 11.429s5.6 5.714 11.2 5.714h33.6c5.6 0 5.6 0 11.2-5.714 5.6 0 5.6-5.714 5.6-11.429v0zM701.206 363.429h49.194c5.6 0 11.2 0 11.2 5.714 5.6 5.714 5.6 5.714 5.6 11.429v34.286c0 0 0 5.714-5.6 11.429s-5.6 5.714-11.2 5.714h-133.7l84.505-68.571zM416 363.429h-147.2c-5.6 0-5.6 0-11.2 5.714s-5.6 5.714-5.6 11.429v34.286c0 5.714 0 5.714 5.6 11.429s5.6 5.714 11.2 5.714h147.2v-68.571zM546.279 489.143h204.121c5.6 0 5.6 0 11.2 5.714s5.6 5.714 5.6 11.429v34.286c0 5.714 0 11.429-5.6 11.429-5.6 5.714-5.6 5.714-11.2 5.714h-288.626l84.505-68.571zM416 489.143h-147.2c-5.6 0-5.6 0-11.2 5.714s-5.6 5.714-5.6 11.429v34.286c0 5.714 0 5.714 5.6 11.429s5.6 5.714 11.2 5.714h147.2v-68.571zM767.2 672v-34.286c0-5.714 0-5.714-5.6-11.429s-5.6-5.714-11.2-5.714h-481.6c-5.6 0-5.6 0-11.2 5.714s-5.6 5.714-5.6 11.429v34.286c0 5.714 0 5.714 5.6 11.429s5.6 5.714 11.2 5.714h481.6c5.6 0 5.6 0 11.2-5.714 5.6 0 5.6-5.714 5.6-11.429v0zM819.813 198.747l-339.813 275.739v-551.451l339.813 275.712zM864.107-69.257h106.24v549.257h-106.24v-549.257z" />
<glyph unicode="&#xe656;" glyph-name="V89_ClearAllIndexes" d="M512.999 294.857l-28.061-57.143h-406.538c-22.4 0-39.2 5.714-56 22.857s-22.4 34.286-22.4 57.143v554.286c0 22.857 5.6 40 22.4 57.143s33.6 22.857 56 22.857h733.6c22.4 0 39.2-5.714 56-22.857 22.4-17.143 28-34.286 28-57.143v-356.8h-61.6v219.657c0 5.714 0 5.714-5.6 11.429s-5.6 5.714-11.2 5.714h-739.2c-5.6 0-5.6 0-11.2-5.714s-5.6-5.714-5.6-11.429v-422.857c0-5.714 0-5.714 5.6-11.429s5.6-5.714 11.2-5.714h434.599zM767.2 672v-34.286c0-5.714 0-5.714-5.6-11.429s-5.6-5.714-11.2-5.714h-481.6c-5.6 0-5.6 0-11.2 5.714s-5.6 5.714-5.6 11.429v34.286c0 5.714 0 5.714 5.6 11.429s5.6 5.714 11.2 5.714h481.6c5.6 0 5.6 0 11.2-5.714 5.6 0 5.6-5.714 5.6-11.429v0zM767.2 515.2v25.371c0 5.714 0 11.429-5.6 11.429-5.6 5.714-5.6 5.714-11.2 5.714h-481.6c-5.6 0-5.6 0-11.2-5.714s-5.6-5.714-5.6-11.429v-34.286c0-5.714 0-5.714 5.6-11.429s5.6-5.714 11.2-5.714h345.264c19.466 17.502 46.255 26.057 74.236 26.057h78.9zM546.673 363.429h-277.873c-5.6 0-5.6 0-11.2 5.714s-5.6 5.714-5.6 11.429v34.286c0 5.714 0 5.714 5.6 11.429s5.6 5.714 11.2 5.714h311.546l-33.673-68.571zM190.4 672v-34.286c0-5.714 0-5.714-5.6-11.429s-5.6-5.714-11.2-5.714h-33.6c-5.6 0-5.6 0-11.2 5.714s-5.6 5.714-5.6 11.429v34.286c0 5.714 0 5.714 5.6 11.429s5.6 5.714 11.2 5.714h33.6c5.6 0 5.6 0 11.2-5.714 5.6 0 5.6-5.714 5.6-11.429v0zM190.4 540.571v-34.286c0-5.714 0-5.714-5.6-11.429s-5.6-5.714-11.2-5.714h-33.6c-5.6 0-5.6 0-11.2 5.714s-5.6 5.714-5.6 11.429v34.286c0 5.714 0 5.714 5.6 11.429s5.6 5.714 11.2 5.714h33.6c5.6 0 5.6 0 11.2-5.714 5.6 0 5.6-5.714 5.6-11.429v0zM190.4 414.857v-34.286c0-5.714 0-5.714-5.6-11.429 0-5.714-5.6-5.714-11.2-5.714h-33.6c-5.6 0-5.6 0-11.2 5.714s-5.6 5.714-5.6 11.429v34.286c0 5.714 0 5.714 5.6 11.429s5.6 5.714 11.2 5.714h33.6c5.6 0 5.6 0 11.2-5.714s5.6-11.429 5.6-11.429v0zM1009.6 422.4c-7.2 10.8-14.4 18-25.2 21.6-10.8 7.2-18 7.2-28.8 7.2h-266.4c-18 0-36-7.2-39.6-25.2l-198-403.2c-3.6-10.8-3.6-18 0-28.8s7.2-18 10.8-28.8c7.2-10.8 14.4-18 25.2-21.6 10.8-7.2 18-7.2 28.8-7.2l266.4-3.6c18 0 32.4 7.2 39.6 25.2l198 410.4c3.6 7.2 3.6 18 3.6 25.2-3.6 7.2-7.2 18-14.4 28.8zM768.4-9.6h-270l75.6 151.2h277.2l-82.8-151.2z" />
<glyph unicode="&#xe657;" glyph-name="V8_Reflect_Horiz" d="M940.39-26.739l1.395 470.592-859.942-4.403 858.547-466.189zM901.658 32.666l-695.987 372.544 697.101 4.403-1.114-376.947zM79.808 500.39l858.714-3.917-1.395 418.97z" />
<glyph unicode="&#xe658;" glyph-name="V90_Date" d="M844.8 812.8v54.4c0 54.4-35.2 86.4-89.6 86.4-57.6 0-89.6-32-89.6-86.4v-54.4h-60.8v54.4c0 54.4-35.2 86.4-89.6 86.4s-89.6-32-89.6-86.4v-54.4h-60.8v54.4c0 54.4-35.2 86.4-89.6 86.4s-89.6-32-89.6-86.4v-54.4h-108.8v-873.6h873.6v873.6h-105.6zM713.6 867.2c0 25.6 12.8 38.4 41.6 38.4s41.6-9.6 41.6-38.4v-147.2c0-25.6-12.8-38.4-41.6-38.4s-41.6 9.6-41.6 38.4v147.2zM470.4 867.2c0 25.6 12.8 38.4 41.6 38.4s41.6-9.6 41.6-38.4v-147.2c0-25.6-12.8-38.4-41.6-38.4s-41.6 9.6-41.6 38.4v147.2zM227.2 867.2c0 25.6 12.8 38.4 41.6 38.4s44.8-9.6 44.8-38.4v-147.2c0-25.6-12.8-38.4-41.6-38.4s-44.8 16-44.8 41.6v144zM876.8 16h-729.6v604.8h726.4v-604.8zM515.2 246.4c0 44.8-32 70.4-86.4 86.4v0c48 16 76.8 44.8 76.8 86.4s-41.6 76.8-112 76.8c-35.2 0-70.4-3.2-99.2-19.2l6.4-60.8c22.4 9.6 48 19.2 73.6 19.2 38.4 0 48-12.8 48-32 0-28.8-28.8-41.6-73.6-44.8v-60.8c67.2-3.2 89.6-19.2 89.6-54.4 0-25.6-25.6-44.8-60.8-44.8-32 0-54.4 3.2-86.4 16l-9.6-60.8c22.4-9.6 54.4-16 86.4-16 80 0 147.2 38.4 147.2 108.8v0zM640 400v-259.2h73.6v352h-38.4l-105.6-54.4 9.6-60.8 60.8 22.4z" />
<glyph unicode="&#xe659;" glyph-name="V91_Divider" horiz-adv-x="512" d="M204.8 960h102.758v-1024h-102.758v1024z" />
<glyph unicode="&#xe65a;" glyph-name="V92_Dropdown" d="M731.571 509.862h-413.555l206.477-189.862z" />
<glyph unicode="&#xe65b;" glyph-name="V93_Dots" d="M614.579 765.773c0-64.698-52.448-117.146-117.146-117.146s-117.146 52.448-117.146 117.146c0 64.698 52.448 117.146 117.146 117.146s117.146-52.448 117.146-117.146zM614.566 448c0-64.698-52.448-117.146-117.146-117.146s-117.146 52.448-117.146 117.146c0 64.698 52.448 117.146 117.146 117.146s117.146-52.448 117.146-117.146zM614.566 129.088c0-64.698-52.448-117.146-117.146-117.146s-117.146 52.448-117.146 117.146c0 64.698 52.448 117.146 117.146 117.146s117.146-52.448 117.146-117.146z" />
<glyph unicode="&#xe65c;" glyph-name="E1_BreadcrumbCaret" d="M517.146 457.075l-236.749-236.749v-223.808l0.576-0.563 461.107 461.12-461.107 461.107-0.576-0.563v-223.795z" />
<glyph unicode="&#xe65d;" glyph-name="V109_Edit_Memo" d="M640 118.044c0-17.067-14.222-29.867-29.867-29.867h-487.822c-17.067 0-29.867 14.222-29.867 29.867v487.822c0 17.067 14.222 29.867 29.867 29.867h422.4l89.6 89.6c-7.111 1.422-15.644 2.844-24.178 2.844h-487.822c-66.844 0-122.311-54.044-122.311-122.311v-487.822c0-66.844 54.044-122.311 122.311-122.311h487.822c66.844 0 122.311 54.044 122.311 122.311v270.222l-91.022-91.022-1.422-179.2zM893.156 637.156l-130.844 130.844-392.533-392.533-62.578-194.844 194.844 62.578 391.111 393.956zM459.378 354.133l-21.333 21.333 324.267 324.267 21.333-21.333-324.267-324.267zM892.604 899.847l131.741-131.741-86.486-86.486-131.741 131.741 86.486 86.486z" />
<glyph unicode="&#xe65e;" glyph-name="V110_Collapse_All" d="M371.2 697.6h641.6v-158.4h-641.6v158.4zM371.2 349.6h641.6v-158.4h-641.6v158.4zM0 725.6h277.6v-232h-277.6v232zM0 385.6h277.6v-232h-277.6v232z" />
<glyph unicode="&#xe65f;" glyph-name="V111_Expand_All" d="M382.4 728h601.6c12 0 22.4-10.4 22.4-22.4v-27.2c0-12.8-9.6-22.4-22.4-22.4h-601.6c-12 0-22.4 10.4-22.4 22.4v27.2c0 12 10.4 22.4 22.4 22.4zM382.4 569.6h601.6c12 0 22.4-10.4 22.4-22.4v-27.2c0-12.8-9.6-22.4-22.4-22.4h-601.6c-12 0-22.4 10.4-22.4 22.4v27.2c0 12.8 10.4 22.4 22.4 22.4zM382.4 387.2h601.6c12 0 22.4-10.4 22.4-22.4v-27.2c0-12.8-9.6-22.4-22.4-22.4h-601.6c-12 0-22.4 10.4-22.4 22.4v27.2c0 12.8 10.4 22.4 22.4 22.4zM382.4 221.6h601.6c12 0 22.4-10.4 22.4-22.4v-27.2c0-12.8-9.6-22.4-22.4-22.4h-601.6c-12 0-22.4 10.4-22.4 22.4v27.2c0 12 10.4 22.4 22.4 22.4zM22.4 723.2h236.8c12 0 22.4-10.4 22.4-22.4v-193.6c0-12.8-9.6-22.4-22.4-22.4h-236.8c-12 0-22.4 10.4-22.4 22.4v193.6c0 12 9.6 22.4 22.4 22.4zM22.4 386.4h236.8c12 0 22.4-10.4 22.4-22.4v-193.6c0-12.8-9.6-22.4-22.4-22.4h-236.8c-12 0-22.4 10.4-22.4 22.4v192.8c0 12.8 9.6 23.2 22.4 23.2z" />
<glyph unicode="&#xe660;" glyph-name="V112_Delete" d="M512 956.8c-281.6 0-508.8-227.2-508.8-508.8s227.2-508.8 508.8-508.8c281.6 0 508.8 227.2 508.8 508.8s-227.2 508.8-508.8 508.8zM652.8 416l131.2-131.2c19.2-19.2 19.2-48 0-67.2l-38.4-38.4c-19.2-19.2-48-19.2-67.2 0l-131.2 131.2c-19.2 19.2-48 19.2-67.2 0l-131.2-131.2c-19.2-19.2-48-19.2-67.2 0l-38.4 38.4c-19.2 19.2-19.2 48 0 67.2l131.2 131.2c19.2 19.2 19.2 48 0 67.2l-131.2 131.2c-19.2 19.2-19.2 48 0 67.2l38.4 38.4c19.2 19.2 48 19.2 67.2 0l131.2-131.2c19.2-19.2 48-19.2 67.2 0l131.2 131.2c19.2 19.2 48 19.2 67.2 0l38.4-38.4c19.2-19.2 19.2-48 0-67.2l-131.2-131.2c-19.2-19.2-19.2-48 0-67.2v0z" />
<glyph unicode="&#xe661;" glyph-name="V113_Delete_old" d="M925.013 693.76c-10.24 13.653-34.133 47.787-34.133 47.787-6.827 13.653-20.48 20.48-34.133 20.48h-92.16v78.507c0 13.653-6.827 27.307-13.653 40.96l-61.44 64.853c-6.827 6.827-27.307 13.653-40.96 13.653h-269.653c-13.653 0-27.307-6.827-40.96-13.653l-54.613-58.027c-6.827-6.827-13.653-27.307-13.653-40.96v-85.333h-92.16c-13.653 0-27.307-6.827-34.133-17.067l-37.547-61.44c-6.827-13.653 0-20.48 6.827-20.48h64.853v-706.56c0-10.24 13.653-20.48 20.48-20.48h641.707c13.653 0 20.48 13.653 20.48 20.48v716.8h54.613c13.653 0 17.067 10.24 10.24 20.48zM774.827 645.973v-597.333c0-13.653-13.653-20.48-20.48-20.48h-460.8c-13.653 0-20.48 13.653-20.48 20.48v597.333c0 13.653 6.827 20.48 20.48 20.48h460.8c13.653 0 20.48-6.827 20.48-20.48zM361.813 809.813c0 13.653 3.413 30.72 13.653 40.96s34.133 20.48 47.787 20.48h197.973c13.653 0 40.96-6.827 54.613-27.307 6.827-6.827 13.653-27.307 13.653-40.96v-40.96h-327.68c0-6.827 0 47.787 0 47.787zM378.88 598.187h-27.307c-13.653 0-20.48-13.653-20.48-20.48v-471.040c0-13.653 13.653-20.48 20.48-20.48h27.307c13.653 0 20.48 13.653 20.48 20.48v471.040c0 13.653-6.827 20.48-20.48 20.48zM505.173 86.187h27.307c13.653 0 20.48 13.653 20.48 20.48v471.040c0 13.653-13.653 20.48-20.48 20.48h-27.307c-13.653 0-20.48-13.653-20.48-20.48v-471.040c0-6.827 6.827-20.48 20.48-20.48zM655.36 86.187h27.307c13.653 0 20.48 13.653 20.48 20.48v471.040c0 13.653-13.653 20.48-20.48 20.48h-27.307c-13.653 0-20.48-13.653-20.48-20.48v-471.040c0-6.827 6.827-20.48 20.48-20.48z" />
<glyph unicode="&#xe662;" glyph-name="V94_ExpandPanel" d="M883.2-10.278v921.946l-755.942-460.288z" />
<glyph unicode="&#xe663;" glyph-name="V95_CollapsePanel" d="M127.245 911.667v-921.958l755.955 460.288z" />
<glyph unicode="&#xe664;" glyph-name="V96_Document_workflow" d="M896.979 352.1c68.268 0 123.594 54.673 123.594 122.034s-55.327 122.079-123.594 122.079c-56.319 0-103.754-37.265-118.634-88.198h-309.279l173.149 296.025h136.129c14.88-50.933 62.316-88.109 118.634-88.109 68.268 0 123.594 54.584 123.594 121.99s-55.327 122.079-123.594 122.079c-56.319 0-103.754-37.265-118.634-88.198h-175.764l-212.829-363.787h-115.568c-14.88 50.933-62.316 88.198-118.634 88.198-68.268 0-123.549-54.717-123.549-122.079s55.281-122.034 123.549-122.034c56.319 0 103.754 37.309 118.634 88.153h115.523l212.784-366.058h175.855c14.88-50.888 62.316-88.064 118.634-88.064 68.268 0 123.594 54.584 123.594 121.99s-55.327 122.034-123.594 122.034c-56.319 0-103.754-37.265-118.634-88.109h-136.084l-173.465 298.207h309.549c14.88-50.844 62.316-88.153 118.634-88.153z" />
<glyph unicode="&#xe665;" glyph-name="V118_Placeholder_Error" horiz-adv-x="922" d="M294.229 163.328h64.512v-16.043h-45.397v-27.307h38.571v-16.043h-38.571v-31.744h47.104v-16.043h-66.219v107.179zM380.928 136.363h15.701l1.365-14.336h0.683c2.731 5.12 6.144 9.216 10.24 11.947s8.192 4.096 12.288 4.096c3.755 0 6.827-0.683 9.216-1.707l-3.413-16.384c-1.365 0.341-2.731 0.683-4.096 1.024s-2.731 0.341-4.437 0.341-6.485-1.365-9.899-3.755c-3.413-2.389-6.485-6.827-8.875-12.971v-49.152h-18.773v80.896zM442.027 136.363h15.701l1.365-14.336h0.683c2.731 5.12 6.144 9.216 10.24 11.947s8.192 4.096 12.288 4.096c3.755 0 6.827-0.683 9.216-1.707l-3.413-16.384c-1.365 0.341-2.731 0.683-4.096 1.024s-2.731 0.341-4.437 0.341-6.485-1.365-9.899-3.755c-3.413-2.389-6.485-6.827-8.875-12.971v-49.152h-18.773v80.896zM534.528 54.101c-5.12 0-9.899 1.024-14.336 2.731s-8.533 4.437-12.288 8.192-6.485 8.192-8.533 13.312c-2.048 5.12-3.072 11.264-3.072 17.749 0 6.827 1.024 12.629 3.072 17.749s4.779 9.557 8.533 13.312c3.413 3.755 7.509 6.485 12.288 8.192 4.437 2.048 9.557 2.731 14.336 2.731 5.12 0 9.899-1.024 14.336-2.731 4.779-2.048 8.875-4.779 12.288-8.192 3.413-3.755 6.144-8.192 8.533-13.312 2.048-5.12 3.072-11.264 3.072-17.749 0-6.827-1.024-12.629-3.072-17.749s-4.779-9.557-8.533-13.312-7.509-6.485-12.288-8.192c-4.779-1.707-9.557-2.731-14.336-2.731zM534.528 69.461c5.803 0 10.581 2.389 13.995 7.168s5.12 11.264 5.12 19.456c0 8.192-1.707 14.677-5.12 19.456s-8.192 7.168-13.995 7.168c-5.803 0-10.581-2.389-13.995-7.168s-5.12-11.264-5.12-19.456c0-8.192 1.707-14.677 5.12-19.456s7.851-7.168 13.995-7.168zM591.531 136.363h15.701l1.365-14.336h0.683c2.731 5.12 6.144 9.216 10.24 11.947s8.192 4.096 12.288 4.096c3.755 0 6.827-0.683 9.216-1.707l-3.413-16.384c-1.365 0.341-2.731 0.683-4.096 1.024s-2.731 0.341-4.437 0.341-6.485-1.365-9.899-3.755c-3.413-2.389-6.485-6.827-8.875-12.971v-49.152h-18.773v80.896zM460.8 857.6c-136.192 0-247.467-109.909-247.467-247.467 0-136.192 109.909-247.467 247.467-247.467 136.192 0 247.467 109.909 247.467 247.467-1.365 136.192-111.275 247.467-247.467 247.467zM616.448 523.776l-67.925-67.925-86.357 86.357-86.357-86.357-67.925 67.925 86.357 86.357-86.699 86.357 67.925 67.925 86.357-86.357 86.357 86.357 67.925-67.925-86.357-86.357 86.699-86.357z" />
<glyph unicode="&#xe666;" glyph-name="V122_Display_as_Icon" d="M809.244 897.422c82.489 0 150.756-66.844 150.756-150.756v-527.644h-273.067l-177.778-226.133-179.2 226.133h-274.489v527.644c0 83.911 66.844 150.756 150.756 150.756h603.022zM809.244 954.311h-603.022c-115.2 0-207.644-93.867-207.644-207.644v-527.644c0-31.289 25.6-56.889 56.889-56.889h247.467l162.133-204.8c11.378-14.222 27.022-21.333 44.089-21.333s34.133 8.533 44.089 21.333l162.133 204.8h244.622c31.289 0 56.889 25.6 56.889 56.889v527.644c0 113.778-92.444 207.644-207.644 207.644v0zM324.267 543.289c0-40.059-32.474-72.533-72.533-72.533s-72.533 32.474-72.533 72.533c0 40.059 32.474 72.533 72.533 72.533s72.533-32.474 72.533-72.533zM580.267 543.289c0-40.059-32.474-72.533-72.533-72.533s-72.533 32.474-72.533 72.533c0 40.059 32.474 72.533 72.533 72.533s72.533-32.474 72.533-72.533zM836.267 543.289c0-40.059-32.474-72.533-72.533-72.533s-72.533 32.474-72.533 72.533c0 40.059 32.474 72.533 72.533 72.533s72.533-32.474 72.533-72.533z" />
<glyph unicode="&#xe667;" glyph-name="V123_Display_as_Icon2" d="M841.956 888.889h-645.689c-105.244 0-189.156-85.333-189.156-189.156v-365.511c0-88.178 59.733-162.133 140.8-183.467-12.8-39.822-44.089-82.489-100.978-126.578-15.644-11.378 5.689-24.178 46.933-24.178 65.422 0 180.622 29.867 291.556 143.644h457.956c105.244 0 189.156 85.333 189.156 189.156v365.511c0 105.244-86.756 190.578-190.578 190.578zM945.778 332.8c0-58.311-46.933-105.244-105.244-105.244h-492.089l-25.6-25.6c-32.711-34.133-65.422-56.889-93.867-75.378l27.022 81.067-88.178 22.756c-45.511 12.8-78.222 54.044-78.222 100.978v366.933c0 58.311 46.933 105.244 105.244 105.244h647.111c58.311 0 105.244-46.933 105.244-105.244-1.422 0-1.422-365.511-1.422-365.511zM248.889 662.756h539.022v-85.333h-539.022v85.333zM248.889 457.956h539.022v-85.333h-539.022v85.333z" />
<glyph unicode="&#xe668;" glyph-name="V124_Annotation_Style_Toolbar" d="M753.778-65.422h187.733l-322.844 1016.889h-209.067l-331.378-1015.467h176.356l85.333 254.578h332.8l81.067-256zM389.689 314.311l31.289 133.689c9.956 51.2 31.289 112.356 41.244 174.933s31.289 123.733 41.244 184.889v0c9.956-62.578 31.289-123.733 41.244-184.889s31.289-123.733 51.2-174.933l31.289-133.689h-237.511z" />
<glyph unicode="&#xe669;" glyph-name="V125_Transparent" d="M713.956 732.444c-56.889 133.689-187.733 227.556-342.756 227.556-204.8 0-371.2-166.4-371.2-371.2 0-155.022 92.444-287.289 223.289-342.756 42.667-176.356 203.378-310.044 392.533-310.044 223.289 0 405.333 182.044 405.333 403.911 0 189.156-132.267 348.444-307.2 392.533zM675.556 651.378c0-204.8-166.4-371.2-371.2-371.2-19.911 0-36.978 0-56.889 2.844-2.844 19.911-7.111 39.822-2.844 56.889 0 204.8 166.4 371.2 371.2 371.2 19.911 0 36.978 0 56.889-2.844 2.844-17.067 2.844-36.978 2.844-56.889zM615.822 2.844c-146.489 0-268.8 93.867-315.733 221.867 22.756-4.267 46.933-5.689 71.111-5.689 204.8 0 371.2 166.4 371.2 371.2 0 24.178-2.844 46.933-7.111 69.689 128-49.778 219.022-174.933 219.022-318.578 0-186.311-152.178-338.489-338.489-338.489z" />
<glyph unicode="&#xe66a;" glyph-name="V119_Placeholder_Foreign" horiz-adv-x="922" d="M64.512 163.328h64.853v-16.043h-46.080v-30.379h38.912v-16.043h-38.912v-44.715h-19.115v107.179zM176.469 54.101c-5.12 0-9.899 1.024-14.336 2.731s-8.533 4.437-12.288 8.192c-3.413 3.755-6.485 8.192-8.533 13.312s-3.072 11.264-3.072 17.749 1.024 12.629 3.072 17.749c2.048 5.12 4.779 9.557 8.533 13.312 3.413 3.755 7.509 6.485 12.288 8.192 4.437 2.048 9.557 2.731 14.336 2.731 5.12 0 9.899-1.024 14.336-2.731 4.779-2.048 8.875-4.779 12.288-8.192 3.413-3.755 6.144-8.192 8.533-13.312s3.072-11.264 3.072-17.749-1.024-12.629-3.072-17.749-4.779-9.557-8.533-13.312c-3.413-3.755-7.509-6.485-12.288-8.192-4.437-1.707-9.216-2.731-14.336-2.731zM176.469 69.461c5.803 0 10.581 2.389 13.995 7.168s5.12 11.264 5.12 19.456c0 8.192-1.707 14.677-5.12 19.456s-8.192 7.168-13.995 7.168c-5.803 0-10.581-2.389-13.995-7.168s-5.12-11.264-5.12-19.456c0-8.192 1.707-14.677 5.12-19.456s8.192-7.168 13.995-7.168zM233.472 136.363h15.701l1.365-14.336h0.683c2.731 5.12 6.144 9.216 10.24 11.947s8.192 4.096 12.288 4.096c3.755 0 6.827-0.683 9.216-1.707l-3.413-16.384c-1.365 0.341-2.731 0.683-4.096 1.024s-2.731 0.341-4.437 0.341-6.485-1.365-9.899-3.755c-3.413-2.389-6.485-6.827-8.875-12.971v-49.152h-18.773v80.896zM327.68 54.101c-5.461 0-10.923 1.024-15.701 2.731s-8.875 4.779-12.629 8.192c-3.755 3.755-6.485 7.851-8.533 13.312s-3.072 11.264-3.072 17.749c0 6.485 1.024 12.288 3.072 17.749 2.048 5.12 4.779 9.557 8.192 13.312s7.509 6.485 11.947 8.192c4.437 2.048 9.216 3.072 13.653 3.072 5.461 0 10.24-1.024 14.336-2.731s7.509-4.437 10.24-7.851c2.731-3.413 4.779-7.509 6.144-12.288s2.048-9.899 2.048-15.36c0-1.707 0-3.755-0.341-5.12 0-1.707-0.341-3.072-0.683-4.096h-51.2c1.024-7.168 3.413-12.629 7.509-16.725 4.096-3.755 9.557-5.803 16.043-5.803 3.413 0 6.827 0.683 9.899 1.707s6.144 2.389 8.875 4.437l6.485-11.947c-3.755-2.389-8.192-4.437-12.629-6.144-3.755-1.707-8.533-2.389-13.653-2.389zM341.675 103.936c0 6.144-1.365 11.264-4.096 14.677s-6.827 5.461-12.288 5.461c-4.779 0-8.875-1.707-12.629-5.12s-5.803-8.192-6.827-15.019h35.84zM385.707 150.699c-3.413 0-6.144 1.024-8.192 3.072s-3.413 4.437-3.413 7.851c0 3.072 1.024 5.803 3.413 7.851 2.048 2.048 5.12 3.072 8.192 3.072 3.413 0 6.144-1.024 8.192-3.072s3.413-4.779 3.413-7.851c0-3.072-1.024-5.803-3.413-7.851-2.048-2.389-4.779-3.072-8.192-3.072zM376.149 136.363h18.773v-80.555h-18.773v80.555zM447.147 20.309c-4.779 0-9.216 0.341-13.312 1.365s-7.509 2.048-10.581 4.096c-3.072 1.707-5.12 4.096-6.827 6.485-1.707 2.731-2.389 5.803-2.389 9.216s1.024 6.485 3.072 9.557c2.048 2.731 4.779 5.461 8.533 7.851v0.683c-2.048 1.365-3.755 3.072-5.12 5.12s-2.048 4.779-2.048 8.192c0 3.072 1.024 6.144 2.731 8.533s3.755 4.779 6.144 6.144v0.683c-2.731 2.048-5.12 4.779-7.168 8.533s-3.072 7.851-3.072 12.629c0 4.437 1.024 8.533 2.731 12.288s4.096 6.485 6.827 9.216c2.731 2.389 6.144 4.437 10.24 5.461 3.755 1.365 7.851 2.048 12.288 2.048 2.048 0 4.437-0.341 6.144-0.683 2.048-0.341 3.755-0.683 5.461-1.365h28.672v-13.995h-14.677c1.365-1.365 2.389-3.413 3.413-5.803s1.365-4.779 1.365-7.851c0-4.437-0.683-8.533-2.389-11.947s-3.755-6.144-6.485-8.533c-2.731-2.389-5.803-4.096-9.557-5.12-3.755-1.365-7.851-1.707-11.947-1.707-1.707 0-3.413 0-5.461 0.341-1.707 0.341-3.755 1.024-5.461 1.707-1.365-1.024-2.048-2.048-2.731-3.413-0.683-1.024-1.024-2.731-1.024-4.437 0-2.389 1.024-4.096 2.731-5.461s5.461-2.048 10.24-2.048h14.336c9.557 0 17.067-1.707 22.187-4.779s7.509-8.192 7.509-15.019c0-4.096-1.024-7.509-3.072-11.264-2.048-3.413-4.779-6.485-8.533-8.875s-8.192-4.437-13.653-6.144c-6.827-0.683-12.629-1.707-19.115-1.707zM450.219 32.597c6.485 0 11.947 1.365 15.701 3.755 4.096 2.731 6.144 5.461 6.144 9.216 0 3.072-1.365 5.461-3.755 6.485s-6.144 1.707-10.581 1.707h-10.923c-4.437 0-8.192 0.341-10.923 1.024-4.096-3.072-6.144-6.827-6.144-10.581s1.707-6.485 5.461-8.533c3.413-2.048 8.533-3.072 15.019-3.072zM448.171 93.355c3.755 0 7.168 1.365 9.899 4.096s4.096 6.827 4.096 11.947c0 5.12-1.365 8.875-4.096 11.605s-6.144 4.096-9.899 4.096-7.168-1.365-9.899-4.096c-2.731-2.731-4.096-6.827-4.096-11.947s1.365-9.216 4.096-11.947c2.731-2.389 5.803-3.755 9.899-3.755zM504.149 136.363h15.701l1.365-10.923h0.683c3.755 3.413 7.509 6.485 11.605 8.875s9.216 3.755 14.677 3.755c8.533 0 15.019-2.731 18.773-8.192 4.096-5.461 5.803-13.312 5.803-23.552v-50.517h-18.773v48.128c0 6.827-1.024 11.264-3.072 13.995s-5.12 4.096-9.557 4.096c-3.413 0-6.485-0.683-9.216-2.389s-5.803-4.096-9.216-7.509v-56.32h-18.773v80.555zM630.443 163.328h64.853v-16.043h-45.739v-30.379h38.912v-16.043h-38.912v-44.715h-19.115v107.179zM721.92 150.699c-3.413 0-6.144 1.024-8.192 3.072s-3.413 4.437-3.413 7.851c0 3.072 1.024 5.803 3.413 7.851 2.048 2.048 5.12 3.072 8.192 3.072 3.413 0 6.144-1.024 8.192-3.072s3.413-4.779 3.413-7.851c0-3.072-1.024-5.803-3.413-7.851-2.048-2.389-4.779-3.072-8.192-3.072zM712.363 136.363h18.773v-80.555h-18.773v80.555zM773.803 54.101c-6.827 0-11.605 2.048-14.336 6.144s-4.096 9.557-4.096 16.384v94.891h18.773v-95.915c0-2.389 0.341-3.755 1.365-4.779s1.707-1.365 2.731-1.365c0.341 0 0.683 0 1.365 0 0.341 0 1.024 0 1.707 0.341l2.389-13.995c-2.731-1.365-5.803-1.707-9.899-1.707zM834.219 54.101c-5.461 0-10.923 1.024-15.701 2.731-4.779 2.048-8.875 4.779-12.629 8.192-3.755 3.755-6.485 7.851-8.533 13.312-2.048 5.12-3.072 11.264-3.072 17.749s1.024 12.288 3.072 17.749c2.048 5.12 4.779 9.557 8.192 13.312s7.509 6.485 11.947 8.192c4.437 2.048 9.216 3.072 13.653 3.072 5.461 0 10.24-1.024 14.336-2.731s7.509-4.437 10.24-7.851c2.731-3.413 4.779-7.509 6.144-12.288s2.048-9.899 2.048-15.36c0-1.707 0-3.755-0.341-5.12 0-1.707-0.341-3.072-0.683-4.096h-51.2c1.024-7.168 3.413-12.629 7.509-16.725 4.096-3.755 9.557-5.803 16.043-5.803 3.413 0 6.827 0.683 9.899 1.707s6.144 2.389 8.875 4.437l6.485-11.947c-3.755-2.389-8.192-4.437-12.629-6.144-3.755-1.707-8.533-2.389-13.653-2.389zM848.213 103.936c0 6.144-1.365 11.264-4.096 14.677s-6.827 5.461-12.288 5.461c-4.779 0-8.875-1.707-12.629-5.12s-5.803-8.192-6.827-15.019h35.84zM376.491 837.12h18.432l-44.373-102.059c-2.731-5.12-3.755-10.581-3.755-10.581h-2.048c0 0 0 3.755 0 10.24l-8.533 119.467h-18.432l-57.344-119.125c-2.731-5.12-5.12-10.581-5.12-10.581h-1.365c0 0 1.365 4.096 1.365 10.581l-5.461 102.059h18.432l3.755 17.067h-55.979l-2.731-17.067h15.701l9.216-139.947h26.283l52.224 111.957c2.731 5.12 5.12 14.336 5.12 14.336h1.365c0 0-1.365-7.509 0-14.336l8.875-111.957h23.552l62.805 139.947h15.701l3.755 17.067h-57.344l-4.096-17.067zM239.616 615.253h-10.923v-185.685l-1.024 1.707h185.003v-1.707 185.685h-173.056zM341.333 601.6v-20.48h-44.373v20.48h44.373zM341.333 557.227v-23.893h-44.373v23.893h44.373zM238.933 441.173v160.427h47.787v-20.48h-37.547v-23.893h37.547v-23.893h-23.893v-23.893h23.893v-68.267h-47.787zM296.96 441.173v68.267h44.373v-23.893h-34.133v-23.893h34.133v-20.48h-44.373zM354.987 441.173v20.48h47.787v-20.48h-47.787zM402.773 485.547h-47.787v23.893h10.24v23.893h-10.24v23.893h34.133v23.893h-34.133v20.48h47.787v-116.053zM692.907 695.808v161.792h-187.733v-174.080h187.733v12.288zM621.227 789.333v-23.893h-47.787v23.893h47.787zM573.44 799.573v23.893h47.787v-23.893h-47.787zM679.253 765.44h-47.787v23.893h47.787v-23.893zM621.227 751.787v-20.48h-47.787v20.48h47.787zM631.467 751.787h47.787v-20.48h-47.787v20.48zM679.253 799.573h-47.787v23.893h47.787v-23.893zM518.827 823.467h44.373v-23.893h-44.373v23.893zM518.827 789.333h44.373v-23.893h-44.373v23.893zM518.827 751.787h44.373v-20.48h-44.373v20.48zM518.827 697.173v20.48h44.373v-20.48h-44.373zM573.44 697.173v20.48h47.787v-20.48h-47.787zM631.467 697.173v20.48h47.787v-20.48h-47.787zM597.333 618.667c-60.075 0-109.227-48.469-109.227-109.568 0 0 0-19.797 0-30.037h23.893c0 10.24 0 30.037 0 30.037 0 48.469 38.571 87.381 87.040 87.381s87.040-39.253 87.040-87.381c0 0 0-19.797 0-30.037h20.48c0 10.24 0 30.037 0 30.037 0 58.709-49.152 109.568-109.227 109.568zM548.864 519.68h-14.336c-5.12 0-8.875-4.096-8.875-8.192v-65.195c0-5.12 5.12-8.533 8.875-8.533h14.336c5.12 0 10.923 4.437 10.923 8.533v65.195c0 4.096-6.827 8.192-10.923 8.192zM662.528 519.68h-14.336c-5.12 0-9.899-4.096-9.899-8.192v-65.195c0-5.12 6.144-8.533 9.899-8.533h14.336c5.12 0 9.899 4.437 9.899 8.533v65.195c0 4.096-5.803 8.192-9.899 8.192z" />
</font>
</defs>
</svg>
